  0
SECTION
  2
HEADER
  9
$ACADVER
  1
AC1014
  9
$ACADMAINTVER
 70
     9
  9
$DWGCODEPAGE
  3
ANSI_1252
  9
$INSBASE
 10
0.0
 20
0.0
 30
0.0
  9
$EXTMIN
 10
-1.875595047372158
 20
2.905819471452055
 30
-0.0015258207003583
  9
$EXTMAX
 10
17.6255951381761
 20
22.34443192916012
 30
0.0000000349246037
  9
$LIMMIN
 10
0.0
 20
0.0
  9
$LIMMAX
 10
12.0
 20
9.0
  9
$ORTHOMODE
 70
     1
  9
$REGENMODE
 70
     1
  9
$FILLMODE
 70
     1
  9
$QTEXTMODE
 70
     0
  9
$MIRRTEXT
 70
     1
  9
$DRAGMODE
 70
     2
  9
$LTSCALE
 40
1.0
  9
$OSMODE
 70
    37
  9
$ATTMODE
 70
     1
  9
$TEXTSIZE
 40
0.188
  9
$TRACEWID
 40
0.05
  9
$TEXTSTYLE
  7
STANDARD
  9
$CLAYER
  8
DAMAN
  9
$CELTYPE
  6
BYLAYER
  9
$CECOLOR
 62
   256
  9
$CELTSCALE
 40
1.0
  9
$DELOBJ
 70
     1
  9
$DISPSILH
 70
     0
  9
$DIMSCALE
 40
1.0
  9
$DIMASZ
 40
0.18
  9
$DIMEXO
 40
0.0625
  9
$DIMDLI
 40
0.38
  9
$DIMRND
 40
0.0
  9
$DIMDLE
 40
0.0
  9
$DIMEXE
 40
0.18
  9
$DIMTP
 40
0.0
  9
$DIMTM
 40
0.0
  9
$DIMTXT
 40
0.18
  9
$DIMCEN
 40
0.09
  9
$DIMTSZ
 40
0.0
  9
$DIMTOL
 70
     0
  9
$DIMLIM
 70
     0
  9
$DIMTIH
 70
     1
  9
$DIMTOH
 70
     1
  9
$DIMSE1
 70
     0
  9
$DIMSE2
 70
     0
  9
$DIMTAD
 70
     0
  9
$DIMZIN
 70
     0
  9
$DIMBLK
  1

  9
$DIMASO
 70
     1
  9
$DIMSHO
 70
     1
  9
$DIMPOST
  1

  9
$DIMAPOST
  1

  9
$DIMALT
 70
     0
  9
$DIMALTD
 70
     2
  9
$DIMALTF
 40
25.4
  9
$DIMLFAC
 40
1.0
  9
$DIMTOFL
 70
     0
  9
$DIMTVP
 40
0.0
  9
$DIMTIX
 70
     0
  9
$DIMSOXD
 70
     0
  9
$DIMSAH
 70
     0
  9
$DIMBLK1
  1

  9
$DIMBLK2
  1

  9
$DIMSTYLE
  2
STANDARD
  9
$DIMCLRD
 70
     0
  9
$DIMCLRE
 70
     0
  9
$DIMCLRT
 70
     0
  9
$DIMTFAC
 40
1.0
  9
$DIMGAP
 40
0.09
  9
$DIMJUST
 70
     0
  9
$DIMSD1
 70
     0
  9
$DIMSD2
 70
     0
  9
$DIMTOLJ
 70
     1
  9
$DIMTZIN
 70
     0
  9
$DIMALTZ
 70
     0
  9
$DIMALTTZ
 70
     0
  9
$DIMFIT
 70
     3
  9
$DIMUPT
 70
     0
  9
$DIMUNIT
 70
     2
  9
$DIMDEC
 70
     4
  9
$DIMTDEC
 70
     4
  9
$DIMALTU
 70
     2
  9
$DIMALTTD
 70
     2
  9
$DIMTXSTY
  7
STANDARD
  9
$DIMAUNIT
 70
     0
  9
$LUNITS
 70
     2
  9
$LUPREC
 70
     4
  9
$SKETCHINC
 40
0.1
  9
$FILLETRAD
 40
0.0
  9
$AUNITS
 70
     0
  9
$AUPREC
 70
     0
  9
$MENU
  1
tom
  9
$ELEVATION
 40
0.0
  9
$PELEVATION
 40
0.0
  9
$THICKNESS
 40
0.0
  9
$LIMCHECK
 70
     0
  9
$BLIPMODE
 70
     0
  9
$CHAMFERA
 40
0.0
  9
$CHAMFERB
 40
0.0
  9
$CHAMFERC
 40
0.0
  9
$CHAMFERD
 40
0.0
  9
$SKPOLY
 70
     0
  9
$TDCREATE
 40
2449759.327303542
  9
$TDUPDATE
 40
2453423.579432176
  9
$TDINDWG
 40
0.0010201505
  9
$TDUSRTIMER
 40
0.0010201505
  9
$USRTIMER
 70
     1
  9
$ANGBASE
 50
0.0
  9
$ANGDIR
 70
     0
  9
$PDMODE
 70
     0
  9
$PDSIZE
 40
0.0
  9
$PLINEWID
 40
0.0
  9
$COORDS
 70
     1
  9
$SPLFRAME
 70
     0
  9
$SPLINETYPE
 70
     6
  9
$SPLINESEGS
 70
     8
  9
$ATTDIA
 70
     0
  9
$ATTREQ
 70
     1
  9
$HANDLING
 70
-16383
  9
$HANDSEED
  5
22A
  9
$SURFTAB1
 70
     6
  9
$SURFTAB2
 70
     6
  9
$SURFTYPE
 70
     6
  9
$SURFU
 70
     6
  9
$SURFV
 70
     6
  9
$UCSNAME
  2

  9
$UCSORG
 10
0.0
 20
0.0
 30
0.0
  9
$UCSXDIR
 10
1.0
 20
0.0
 30
0.0
  9
$UCSYDIR
 10
0.0
 20
1.0
 30
0.0
  9
$PUCSNAME
  2

  9
$PUCSORG
 10
0.0
 20
0.0
 30
0.0
  9
$PUCSXDIR
 10
1.0
 20
0.0
 30
0.0
  9
$PUCSYDIR
 10
0.0
 20
1.0
 30
0.0
  9
$USERI1
 70
     0
  9
$USERI2
 70
     0
  9
$USERI3
 70
     0
  9
$USERI4
 70
     0
  9
$USERI5
 70
     0
  9
$USERR1
 40
0.0
  9
$USERR2
 40
0.0
  9
$USERR3
 40
0.0
  9
$USERR4
 40
0.0
  9
$USERR5
 40
0.0
  9
$WORLDVIEW
 70
     1
  9
$SHADEDGE
 70
     3
  9
$SHADEDIF
 70
    70
  9
$TILEMODE
 70
     1
  9
$MAXACTVP
 70
    16
  9
$PINSBASE
 10
0.0
 20
0.0
 30
0.0
  9
$PLIMCHECK
 70
     0
  9
$PEXTMIN
 10
1.000000000000000E+20
 20
1.000000000000000E+20
 30
1.000000000000000E+20
  9
$PEXTMAX
 10
-1.000000000000000E+20
 20
-1.000000000000000E+20
 30
-1.000000000000000E+20
  9
$PLIMMIN
 10
0.0
 20
0.0
  9
$PLIMMAX
 10
12.0
 20
9.0
  9
$UNITMODE
 70
     0
  9
$VISRETAIN
 70
     0
  9
$PLINEGEN
 70
     0
  9
$PSLTSCALE
 70
     1
  9
$TREEDEPTH
 70
  3020
  9
$PICKSTYLE
 70
     1
  9
$CMLSTYLE
  2
STANDARD
  9
$CMLJUST
 70
     0
  9
$CMLSCALE
 40
1.0
  9
$PROXYGRAPHICS
 70
     1
  9
$MEASUREMENT
 70
     0
  0
ENDSEC
  0
SECTION
  2
CLASSES
  0
CLASS
  1
ACDBDICTIONARYWDFLT
  2
AcDbDictionaryWithDefault
  3
AutoCAD 2000
 90
        0
280
     0
281
     0
  0
CLASS
  1
ACDBPLACEHOLDER
  2
AcDbPlaceHolder
  3
AutoCAD 2000
 90
        0
280
     0
281
     0
  0
CLASS
  1
LAYOUT
  2
AcDbLayout
  3
AutoCAD 2000
 90
        0
280
     0
281
     0
  0
CLASS
  1
LONG_TRANSACTION
  2
AcDbLongTransaction
  3
AutoCAD 2000
 90
        0
280
     0
281
     0
  0
CLASS
  1
LWPOLYLINE
  2
AcDbPolyline
  3
AutoCAD 2000
 90
        0
280
     0
281
     1
  0
CLASS
  1
HATCH
  2
AcDbHatch
  3
AutoCAD 2000
 90
        0
280
     0
281
     1
  0
CLASS
  1
XRECORD
  2
AcDbXrecord
  3
AutoCAD 2000
 90
        0
280
     0
281
     0
  0
ENDSEC
  0
SECTION
  2
TABLES
  0
TABLE
  2
VPORT
  5
8
330
0
100
AcDbSymbolTable
 70
     3
  0
VPORT
  5
205
330
8
100
AcDbSymbolTableRecord
100
AcDbViewportTableRecord
  2
*ACTIVE
 70
     0
 10
0.0
 20
0.0
 11
1.0
 21
1.0
 12
8.659265993133516
 22
12.23390898925529
 13
0.0
 23
0.0
 14
0.03125
 24
0.03125
 15
0.0
 25
0.0
 16
0.0
 26
0.0
 36
1.0
 17
0.0
 27
0.0
 37
0.0
 40
21.58619516662324
 41
1.647569444444444
 42
50.0
 43
0.0
 44
0.0
 50
0.0
 51
0.0
 71
     0
 72
   100
 73
     1
 74
     1
 75
     1
 76
     0
 77
     0
 78
     0
  0
ENDTAB
  0
TABLE
  2
LTYPE
  5
5
330
0
100
AcDbSymbolTable
 70
     3
  0
LTYPE
  5
13
330
5
100
AcDbSymbolTableRecord
100
AcDbLinetypeTableRecord
  2
BYBLOCK
 70
     0
  3

 72
    65
 73
     0
 40
0.0
  0
LTYPE
  5
14
330
5
100
AcDbSymbolTableRecord
100
AcDbLinetypeTableRecord
  2
BYLAYER
 70
     0
  3

 72
    65
 73
     0
 40
0.0
  0
LTYPE
  5
15
330
5
100
AcDbSymbolTableRecord
100
AcDbLinetypeTableRecord
  2
CONTINUOUS
 70
     0
  3
Solid line
 72
    65
 73
     0
 40
0.0
  0
LTYPE
  5
24
330
5
100
AcDbSymbolTableRecord
100
AcDbLinetypeTableRecord
  2
HIDDEN
 70
     0
  3
_ _ _ _ _ _ _ _ _ _ _ _ _ _ _ _ _ _ _ _ _ _ _
 72
    65
 73
     2
 40
0.375
 49
0.25
 74
     0
 49
-0.125
 74
     0
  0
LTYPE
  5
25
330
5
100
AcDbSymbolTableRecord
100
AcDbLinetypeTableRecord
  2
CENTER
 70
     0
  3
____ _ ____ _ ____ _ ____ _ ____ _ ____ _ ____
 72
    65
 73
     4
 40
2.0
 49
1.25
 74
     0
 49
-0.25
 74
     0
 49
0.25
 74
     0
 49
-0.25
 74
     0
  0
ENDTAB
  0
TABLE
  2
LAYER
  5
2
330
0
100
AcDbSymbolTable
 70
    10
  0
LAYER
  5
10
330
2
100
AcDbSymbolTableRecord
100
AcDbLayerTableRecord
  2
0
 70
     0
 62
     7
  6
CONTINUOUS
  0
LAYER
  5
22
330
2
100
AcDbSymbolTableRecord
100
AcDbLayerTableRecord
  2
DAMAN
 70
     0
 62
     5
  6
CONTINUOUS
  0
LAYER
  5
26
330
2
100
AcDbSymbolTableRecord
100
AcDbLayerTableRecord
  2
BORDER
 70
     0
 62
     7
  6
CONTINUOUS
  0
LAYER
  5
27
330
2
100
AcDbSymbolTableRecord
100
AcDbLayerTableRecord
  2
CSOLID
 70
     0
 62
     3
  6
CONTINUOUS
  0
LAYER
  5
28
330
2
100
AcDbSymbolTableRecord
100
AcDbLayerTableRecord
  2
SOLID
 70
     0
 62
     4
  6
CONTINUOUS
  0
LAYER
  5
29
330
2
100
AcDbSymbolTableRecord
100
AcDbLayerTableRecord
  2
CDIM
 70
     0
 62
     2
  6
CONTINUOUS
  0
LAYER
  5
2A
330
2
100
AcDbSymbolTableRecord
100
AcDbLayerTableRecord
  2
DIM
 70
     0
 62
     5
  6
CONTINUOUS
  0
LAYER
  5
2B
330
2
100
AcDbSymbolTableRecord
100
AcDbLayerTableRecord
  2
CCENTER
 70
     0
 62
     4
  6
CENTER
  0
LAYER
  5
2C
330
2
100
AcDbSymbolTableRecord
100
AcDbLayerTableRecord
  2
CHIDDEN
 70
     0
 62
     3
  6
HIDDEN
  0
LAYER
  5
2D
330
2
100
AcDbSymbolTableRecord
100
AcDbLayerTableRecord
  2
DEFPOINTS
 70
     0
 62
    -7
  6
CONTINUOUS
  0
ENDTAB
  0
TABLE
  2
STYLE
  5
3
330
0
100
AcDbSymbolTable
 70
     2
  0
STYLE
  5
11
330
3
100
AcDbSymbolTableRecord
100
AcDbTextStyleTableRecord
  2
STANDARD
 70
     0
 40
0.0
 41
1.0
 50
0.0
 71
     0
 42
0.188
  3
txt
  4

  0
STYLE
  5
2E
330
3
100
AcDbSymbolTableRecord
100
AcDbTextStyleTableRecord
  2
STR
 70
     0
 40
0.0
 41
1.0
 50
0.0
 71
     0
 42
0.2
  3
SIMPLEX
  4

  0
ENDTAB
  0
TABLE
  2
VIEW
  5
6
330
0
100
AcDbSymbolTable
 70
     0
  0
ENDTAB
  0
TABLE
  2
UCS
  5
7
330
0
100
AcDbSymbolTable
 70
     0
  0
ENDTAB
  0
TABLE
  2
APPID
  5
9
330
0
100
AcDbSymbolTable
 70
     1
  0
APPID
  5
12
330
9
100
AcDbSymbolTableRecord
100
AcDbRegAppTableRecord
  2
ACAD
 70
     0
  0
ENDTAB
  0
TABLE
  2
DIMSTYLE
  5
A
330
0
100
AcDbSymbolTable
 70
     1
  0
DIMSTYLE
105
1BF
330
A
100
AcDbSymbolTableRecord
100
AcDbDimStyleTableRecord
  2
STANDARD
 70
     0
  3

  4

  5

  6

  7

 40
1.0
 41
0.18
 42
0.0625
 43
0.38
 44
0.18
 45
0.0
 46
0.0
 47
0.0
 48
0.0
140
0.18
141
0.09
142
0.0
143
25.4
144
1.0
145
0.0
146
1.0
147
0.09
 71
     0
 72
     0
 73
     1
 74
     1
 75
     0
 76
     0
 77
     0
 78
     0
170
     0
171
     2
172
     0
173
     0
174
     0
175
     0
176
     0
177
     0
178
     0
270
     2
271
     4
272
     4
273
     2
274
     2
340
11
275
     0
280
     0
281
     0
282
     0
283
     1
284
     0
285
     0
286
     0
287
     3
288
     0
  0
ENDTAB
  0
TABLE
  2
BLOCK_RECORD
  5
1
330
0
100
AcDbSymbolTable
 70
    20
  0
BLOCK_RECORD
  5
1E
102
{ACAD_XDICTIONARY
360
228
102
}
330
1
100
AcDbSymbolTableRecord
100
AcDbBlockTableRecord
  2
*MODEL_SPACE
  0
BLOCK_RECORD
  5
1A
102
{ACAD_XDICTIONARY
360
226
102
}
330
1
100
AcDbSymbolTableRecord
100
AcDbBlockTableRecord
  2
*PAPER_SPACE
  0
BLOCK_RECORD
  5
31
330
1
100
AcDbSymbolTableRecord
100
AcDbBlockTableRecord
  2
D07D10
  0
BLOCK_RECORD
  5
45
330
1
100
AcDbSymbolTableRecord
100
AcDbBlockTableRecord
  2
D10I
  0
BLOCK_RECORD
  5
4E
330
1
100
AcDbSymbolTableRecord
100
AcDbBlockTableRecord
  2
100CROSS
  0
BLOCK_RECORD
  5
5A
330
1
100
AcDbSymbolTableRecord
100
AcDbBlockTableRecord
  2
D04C
  0
BLOCK_RECORD
  5
5C
330
1
100
AcDbSymbolTableRecord
100
AcDbBlockTableRecord
  2
*D4
  0
BLOCK_RECORD
  5
5E
330
1
100
AcDbSymbolTableRecord
100
AcDbBlockTableRecord
  2
*D5
  0
BLOCK_RECORD
  5
60
330
1
100
AcDbSymbolTableRecord
100
AcDbBlockTableRecord
  2
*D6
  0
BLOCK_RECORD
  5
62
330
1
100
AcDbSymbolTableRecord
100
AcDbBlockTableRecord
  2
*D7
  0
BLOCK_RECORD
  5
64
330
1
100
AcDbSymbolTableRecord
100
AcDbBlockTableRecord
  2
*D8
  0
BLOCK_RECORD
  5
66
330
1
100
AcDbSymbolTableRecord
100
AcDbBlockTableRecord
  2
*D9
  0
BLOCK_RECORD
  5
68
330
1
100
AcDbSymbolTableRecord
100
AcDbBlockTableRecord
  2
*D10
  0
BLOCK_RECORD
  5
90
330
1
100
AcDbSymbolTableRecord
100
AcDbBlockTableRecord
  2
050CROSS
  0
BLOCK_RECORD
  5
113
330
1
100
AcDbSymbolTableRecord
100
AcDbBlockTableRecord
  2
*D12
  0
BLOCK_RECORD
  5
120
330
1
100
AcDbSymbolTableRecord
100
AcDbBlockTableRecord
  2
*D13
  0
BLOCK_RECORD
  5
12D
330
1
100
AcDbSymbolTableRecord
100
AcDbBlockTableRecord
  2
*D14
  0
BLOCK_RECORD
  5
13A
330
1
100
AcDbSymbolTableRecord
100
AcDbBlockTableRecord
  2
*D15
  0
BLOCK_RECORD
  5
147
330
1
100
AcDbSymbolTableRecord
100
AcDbBlockTableRecord
  2
*D16
  0
BLOCK_RECORD
  5
154
330
1
100
AcDbSymbolTableRecord
100
AcDbBlockTableRecord
  2
*D17
  0
BLOCK_RECORD
  5
161
330
1
100
AcDbSymbolTableRecord
100
AcDbBlockTableRecord
  2
*D18
  0
BLOCK_RECORD
  5
16E
330
1
100
AcDbSymbolTableRecord
100
AcDbBlockTableRecord
  2
D08
  0
ENDTAB
  0
ENDSEC
  0
SECTION
  2
BLOCKS
  0
BLOCK
  5
1F
330
1E
100
AcDbEntity
  8
0
100
AcDbBlockBegin
  2
*MODEL_SPACE
 70
     0
 10
0.0
 20
0.0
 30
0.0
  3
*MODEL_SPACE
  1

  0
ENDBLK
  5
20
330
1E
100
AcDbEntity
  8
0
100
AcDbBlockEnd
  0
BLOCK
  5
1B
330
1A
100
AcDbEntity
 67
     1
  8
0
100
AcDbBlockBegin
  2
*PAPER_SPACE
 70
     0
 10
0.0
 20
0.0
 30
0.0
  3
*PAPER_SPACE
  1

  0
ENDBLK
  5
1C
330
1A
100
AcDbEntity
 67
     1
  8
0
100
AcDbBlockEnd
  0
BLOCK
  5
32
330
31
100
AcDbEntity
  8
0
100
AcDbBlockBegin
  2
D07D10
 70
     0
 10
0.0
 20
0.0
 30
0.0
  3
D07D10
  1

  0
LWPOLYLINE
  5
33
330
31
100
AcDbEntity
  8
BORDER
100
AcDbPolyline
 90
        4
 70
     1
 43
0.0
 10
2.25
 20
6.0
 10
2.25
 20
15.0
 10
10.25
 20
15.0
 10
10.25
 20
6.0
  0
LWPOLYLINE
  5
39
330
31
100
AcDbEntity
  8
BORDER
100
AcDbPolyline
 90
        4
 70
     1
 43
0.0
 10
13.0
 20
6.0
 10
13.0
 20
15.0
 10
16.0
 20
15.0
 10
16.0
 20
6.0
  0
LWPOLYLINE
  5
3F
330
31
100
AcDbEntity
  8
BORDER
100
AcDbPolyline
 90
        4
 70
     1
 43
0.0
 10
18.75
 20
6.0
 10
18.75
 20
15.0
 10
26.75
 20
15.0
 10
26.75
 20
6.0
  0
INSERT
  5
46
330
31
100
AcDbEntity
  8
SOLID
100
AcDbBlockReference
  2
D10I
 10
25.875
 20
14.25
 30
0.0
 41
-1.0
  0
CIRCLE
  5
47
330
31
100
AcDbEntity
  8
CSOLID
100
AcDbCircle
 10
9.375
 20
6.75
 30
0.0
 40
0.59375
  0
CIRCLE
  5
48
330
31
100
AcDbEntity
  8
CSOLID
100
AcDbCircle
 10
9.375
 20
11.25
 30
0.0
 40
0.59375
  0
CIRCLE
  5
49
330
31
100
AcDbEntity
  8
CSOLID
100
AcDbCircle
 10
9.375
 20
14.25
 30
0.0
 40
0.59375
  0
CIRCLE
  5
4A
330
31
100
AcDbEntity
  8
CSOLID
100
AcDbCircle
 10
3.125
 20
14.25
 30
0.0
 40
0.59375
  0
CIRCLE
  5
4B
330
31
100
AcDbEntity
  8
CSOLID
100
AcDbCircle
 10
3.125
 20
9.75
 30
0.0
 40
0.59375
  0
CIRCLE
  5
4C
330
31
100
AcDbEntity
  8
CSOLID
100
AcDbCircle
 10
3.125
 20
6.75
 30
0.0
 40
0.59375
  0
CIRCLE
  5
4D
330
31
100
AcDbEntity
  8
CSOLID
100
AcDbCircle
 10
3.125
 20
6.75
 30
0.0
 40
0.390625
  0
INSERT
  5
4F
330
31
100
AcDbEntity
  8
CCENTER
100
AcDbBlockReference
  2
100CROSS
 10
3.125
 20
6.75
 30
0.0
  0
INSERT
  5
50
330
31
100
AcDbEntity
  8
CCENTER
100
AcDbBlockReference
  2
100CROSS
 10
3.125
 20
9.75
 30
0.0
  0
CIRCLE
  5
51
330
31
100
AcDbEntity
  8
CSOLID
100
AcDbCircle
 10
3.125
 20
9.75
 30
0.0
 40
0.390625
  0
INSERT
  5
52
330
31
100
AcDbEntity
  8
CCENTER
100
AcDbBlockReference
  2
100CROSS
 10
3.125
 20
14.25
 30
0.0
  0
CIRCLE
  5
53
330
31
100
AcDbEntity
  8
CSOLID
100
AcDbCircle
 10
3.125
 20
14.25
 30
0.0
 40
0.390625
  0
INSERT
  5
54
330
31
100
AcDbEntity
  8
CCENTER
100
AcDbBlockReference
  2
100CROSS
 10
9.375
 20
14.25
 30
0.0
  0
CIRCLE
  5
55
330
31
100
AcDbEntity
  8
CSOLID
100
AcDbCircle
 10
9.375
 20
14.25
 30
0.0
 40
0.390625
  0
INSERT
  5
56
330
31
100
AcDbEntity
  8
CCENTER
100
AcDbBlockReference
  2
100CROSS
 10
9.375
 20
11.25
 30
0.0
  0
CIRCLE
  5
57
330
31
100
AcDbEntity
  8
CSOLID
100
AcDbCircle
 10
9.375
 20
11.25
 30
0.0
 40
0.390625
  0
INSERT
  5
58
330
31
100
AcDbEntity
  8
CCENTER
100
AcDbBlockReference
  2
100CROSS
 10
9.375
 20
6.75
 30
0.0
  0
CIRCLE
  5
59
330
31
100
AcDbEntity
  8
CSOLID
100
AcDbCircle
 10
9.375
 20
6.75
 30
0.0
 40
0.390625
  0
INSERT
  5
5B
330
31
100
AcDbEntity
  8
CCENTER
100
AcDbBlockReference
  2
D04C
 10
5.0625
 20
12.125
 30
0.0
  0
DIMENSION
  5
5D
330
31
100
AcDbEntity
  8
CDIM
100
AcDbDimension
  2
*D4
 10
11.65625
 20
10.156
 30
0.0
 11
11.65625
 21
12.578
 31
0.0
 12
-0.75
 22
0.0
 32
0.0
 70
   128
100
AcDbAlignedDimension
 13
10.25
 23
15.0
 33
0.0
 14
7.2495
 24
10.156
 34
0.0
 50
90.0
100
AcDbRotatedDimension
  0
DIMENSION
  5
5F
330
31
100
AcDbEntity
  8
CDIM
100
AcDbDimension
  2
*D5
 10
17.3125
 20
9.75
 30
0.0
 11
17.3125
 21
12.375
 31
0.0
 12
0.75
 22
0.0
 32
0.0
 70
   128
100
AcDbAlignedDimension
 13
18.75
 23
15.0
 33
0.0
 14
21.0
 24
9.75
 34
0.0
 50
90.0
100
AcDbRotatedDimension
  0
DIMENSION
  5
61
330
31
100
AcDbEntity
  8
CDIM
100
AcDbDimension
  2
*D6
 10
7.2495
 20
15.9375
 30
0.0
 11
4.749749999999999
 21
15.9375
 31
0.0
 12
-0.75
 22
0.0
 32
0.0
100
AcDbAlignedDimension
 13
2.25
 23
15.0
 33
0.0
 14
7.2495
 24
11.40599999999999
 34
0.0
100
AcDbRotatedDimension
  0
DIMENSION
  5
63
330
31
100
AcDbEntity
  8
CDIM
100
AcDbDimension
  2
*D7
 10
16.0
 20
15.9375
 30
0.0
 11
14.576189
 21
15.9375
 31
0.0
 70
   128
100
AcDbAlignedDimension
 13
13.0
 23
15.0
 33
0.0
 14
16.0
 24
15.0
 34
0.0
100
AcDbRotatedDimension
  0
DIMENSION
  5
65
330
31
100
AcDbEntity
  8
CDIM
100
AcDbDimension
  2
*D8
 10
21.0
 20
15.9375
 30
0.0
 11
23.875
 21
15.9375
 31
0.0
 12
0.75
 22
0.0
 32
0.0
100
AcDbAlignedDimension
 13
26.75
 23
15.0
 33
0.0
 14
21.0
 24
12.625
 34
0.0
100
AcDbRotatedDimension
  0
DIMENSION
  5
67
330
31
100
AcDbEntity
  8
CDIM
100
AcDbDimension
  2
*D9
 10
18.75
 20
17.221013
 30
0.0
 11
22.74999999999999
 21
17.221013
 31
0.0
 12
0.75
 22
0.0
 32
0.0
100
AcDbAlignedDimension
 13
26.75
 23
15.0
 33
0.0
 14
18.75
 24
15.0
 34
0.0
100
AcDbRotatedDimension
  0
DIMENSION
  5
69
330
31
100
AcDbEntity
  8
CDIM
100
AcDbDimension
  2
*D10
 10
27.9375
 20
6.0
 30
0.0
 11
27.9375
 21
10.5
 31
0.0
 12
0.75
 22
0.0
 32
0.0
 70
   128
100
AcDbAlignedDimension
 13
26.75
 23
15.0
 33
0.0
 14
26.75
 24
6.0
 34
0.0
 50
90.0
100
AcDbRotatedDimension
  0
ENDBLK
  5
6A
330
31
100
AcDbEntity
  8
0
100
AcDbBlockEnd
  0
BLOCK
  5
6B
330
45
100
AcDbEntity
  8
CHIDDEN
100
AcDbBlockBegin
  2
D10I
 70
     0
 10
6.375
 20
15.3125
 30
0.0
  3
D10I
  1

  0
CIRCLE
  5
6C
330
45
100
AcDbEntity
  8
CSOLID
100
AcDbCircle
 10
6.375
 20
13.6875
 30
0.0
 40
0.125
  0
CIRCLE
  5
6D
330
45
100
AcDbEntity
  8
CSOLID
100
AcDbCircle
 10
12.625
 20
9.5
 30
0.0
 40
0.125
  0
CIRCLE
  5
6E
330
45
100
AcDbEntity
  8
CSOLID
100
AcDbCircle
 10
11.25
 20
13.6875
 30
0.0
 40
0.875
  0
CIRCLE
  5
6F
330
45
100
AcDbEntity
  8
CSOLID
100
AcDbCircle
 10
11.25
 20
10.8125
 30
0.0
 40
0.875
  0
CIRCLE
  5
70
330
45
100
AcDbEntity
  8
CSOLID
100
AcDbCircle
 10
7.75
 20
12.0625
 30
0.0
 40
0.875
  0
CIRCLE
  5
71
330
45
100
AcDbEntity
  8
CSOLID
100
AcDbCircle
 10
7.75
 20
9.5
 30
0.0
 40
0.875
  0
CIRCLE
  5
72
330
45
100
AcDbEntity
  8
CSOLID
100
AcDbCircle
 10
7.5
 20
13.6875
 30
0.0
 40
0.5
  0
INSERT
  5
73
330
45
100
AcDbEntity
  8
CCENTER
100
AcDbBlockReference
  2
100CROSS
 10
7.5
 20
13.6875
 30
0.0
  0
INSERT
  5
74
330
45
100
AcDbEntity
  8
CCENTER
100
AcDbBlockReference
  2
100CROSS
 10
10.875
 20
8.6875
 30
0.0
  0
CIRCLE
  5
75
330
45
100
AcDbEntity
  8
CSOLID
100
AcDbCircle
 10
10.875
 20
8.6875
 30
0.0
 40
0.5
  0
CIRCLE
  5
76
330
45
100
AcDbEntity
  8
CSOLID
100
AcDbCircle
 10
12.625
 20
12.3125
 30
0.0
 40
0.390625
  0
CIRCLE
  5
77
330
45
100
AcDbEntity
  8
CSOLID
100
AcDbCircle
 10
6.375
 20
10.8125
 30
0.0
 40
0.390625
  0
CIRCLE
  5
78
330
45
100
AcDbEntity
  8
CSOLID
100
AcDbCircle
 10
12.625
 20
15.3125
 30
0.0
 40
0.390625
  0
CIRCLE
  5
79
330
45
100
AcDbEntity
  8
CSOLID
100
AcDbCircle
 10
12.625
 20
7.8125
 30
0.0
 40
0.390625
  0
CIRCLE
  5
7A
330
45
100
AcDbEntity
  8
CSOLID
100
AcDbCircle
 10
6.375
 20
15.3125
 30
0.0
 40
0.390625
  0
CIRCLE
  5
7B
330
45
100
AcDbEntity
  8
CSOLID
100
AcDbCircle
 10
6.375
 20
7.8125
 30
0.0
 40
0.390625
  0
INSERT
  5
7C
330
45
100
AcDbEntity
  8
CCENTER
100
AcDbBlockReference
  2
100CROSS
 10
12.625
 20
9.5
 30
0.0
 41
0.281
 42
0.281
  0
CIRCLE
  5
7D
330
45
100
AcDbEntity
  8
CSOLID
100
AcDbCircle
 10
10.875
 20
8.6875
 30
0.0
 40
0.2189999999999999
  0
INSERT
  5
7E
330
45
100
AcDbEntity
  8
CCENTER
100
AcDbBlockReference
  2
100CROSS
 10
7.75
 20
12.0625
 30
0.0
 41
1.311999999999999
 42
1.311999999999999
  0
INSERT
  5
7F
330
45
100
AcDbEntity
  8
CCENTER
100
AcDbBlockReference
  2
100CROSS
 10
7.75
 20
9.5
 30
0.0
 41
1.311999999999999
 42
1.311999999999999
  0
INSERT
  5
80
330
45
100
AcDbEntity
  8
CCENTER
100
AcDbBlockReference
  2
100CROSS
 10
11.25
 20
10.8125
 30
0.0
 41
1.311999999999999
 42
1.311999999999999
  0
INSERT
  5
81
330
45
100
AcDbEntity
  8
CCENTER
100
AcDbBlockReference
  2
100CROSS
 10
11.25
 20
13.6875
 30
0.0
 41
1.311999999999999
 42
1.311999999999999
  0
CIRCLE
  5
82
330
45
100
AcDbEntity
  8
CSOLID
100
AcDbCircle
 10
7.5
 20
13.6875
 30
0.0
 40
0.2189999999999999
  0
INSERT
  5
83
330
45
100
AcDbEntity
  8
CCENTER
100
AcDbBlockReference
  2
100CROSS
 10
6.375
 20
13.6875
 30
0.0
 41
0.281
 42
0.281
  0
INSERT
  5
84
330
45
100
AcDbEntity
  8
CCENTER
100
AcDbBlockReference
  2
100CROSS
 10
6.375
 20
10.8125
 30
0.0
 41
0.75
 42
0.75
  0
INSERT
  5
85
330
45
100
AcDbEntity
  8
CCENTER
100
AcDbBlockReference
  2
100CROSS
 10
12.625
 20
12.3125
 30
0.0
 41
0.75
 42
0.75
  0
INSERT
  5
86
330
45
100
AcDbEntity
  8
CCENTER
100
AcDbBlockReference
  2
100CROSS
 10
12.625
 20
7.8125
 30
0.0
 41
0.75
 42
0.75
  0
INSERT
  5
87
330
45
100
AcDbEntity
  8
CCENTER
100
AcDbBlockReference
  2
100CROSS
 10
6.375
 20
7.8125
 30
0.0
 41
0.75
 42
0.75
  0
INSERT
  5
88
330
45
100
AcDbEntity
  8
CCENTER
100
AcDbBlockReference
  2
100CROSS
 10
6.375
 20
15.3125
 30
0.0
 41
0.75
 42
0.75
  0
INSERT
  5
89
330
45
100
AcDbEntity
  8
CCENTER
100
AcDbBlockReference
  2
100CROSS
 10
12.625
 20
15.3125
 30
0.0
 41
0.75
 42
0.75
  0
CIRCLE
  5
8A
330
45
100
AcDbEntity
  8
CSOLID
100
AcDbCircle
 10
7.75
 20
9.5
 30
0.0
 40
0.625
  0
CIRCLE
  5
8B
330
45
100
AcDbEntity
  8
CSOLID
100
AcDbCircle
 10
7.75
 20
12.0625
 30
0.0
 40
0.625
  0
CIRCLE
  5
8C
330
45
100
AcDbEntity
  8
CSOLID
100
AcDbCircle
 10
11.25
 20
13.6875
 30
0.0
 40
0.625
  0
CIRCLE
  5
8D
330
45
100
AcDbEntity
  8
CSOLID
100
AcDbCircle
 10
11.25
 20
10.8125
 30
0.0
 40
0.625
  0
ENDBLK
  5
8E
330
45
100
AcDbEntity
  8
CHIDDEN
100
AcDbBlockEnd
  0
BLOCK
  5
8F
330
4E
100
AcDbEntity
  8
DIM
100
AcDbBlockBegin
  2
100CROSS
 70
     0
 10
15.96875
 20
8.71875
 30
0.0
  3
100CROSS
  1

  0
INSERT
  5
91
330
4E
100
AcDbEntity
  8
0
100
AcDbBlockReference
  2
050CROSS
 10
15.96875
 20
8.71875
 30
0.0
  0
ENDBLK
  5
92
330
4E
100
AcDbEntity
  8
0
100
AcDbBlockEnd
  0
BLOCK
  5
9B
330
5A
100
AcDbEntity
  8
CCENTER
100
AcDbBlockBegin
  2
D04C
 70
     0
 10
2.0
 20
6.0
 30
0.0
  3
D04C
  1

  0
INSERT
  5
9C
330
5A
100
AcDbEntity
  8
CCENTER
100
AcDbBlockReference
  2
100CROSS
 10
4.125
 20
2.984999999999999
 30
0.0
 41
0.25
 42
0.25
  0
CIRCLE
  5
9D
330
5A
100
AcDbEntity
  8
CSOLID
100
AcDbCircle
 10
4.125
 20
2.984999999999999
 30
0.0
 40
0.125
  0
CIRCLE
  5
9E
330
5A
100
AcDbEntity
  8
CSOLID
100
AcDbCircle
 10
2.5
 20
2.532
 30
0.0
 40
0.125
  0
INSERT
  5
9F
330
5A
100
AcDbEntity
  8
CCENTER
100
AcDbBlockReference
  2
100CROSS
 10
2.5
 20
2.532
 30
0.0
 41
0.25
 42
0.25
  0
INSERT
  5
A0
330
5A
100
AcDbEntity
  8
CCENTER
100
AcDbBlockReference
  2
100CROSS
 10
4.75
 20
2.984249999999999
 30
0.0
 41
0.171
 42
0.171
  0
CIRCLE
  5
A1
330
5A
100
AcDbEntity
  8
CSOLID
100
AcDbCircle
 10
4.75
 20
2.984249999999999
 30
0.0
 40
0.0855
  0
CIRCLE
  5
A2
330
5A
100
AcDbEntity
  8
CSOLID
100
AcDbCircle
 10
2.0
 20
5.28125
 30
0.0
 40
0.0855
  0
INSERT
  5
A3
330
5A
100
AcDbEntity
  8
CCENTER
100
AcDbBlockReference
  2
100CROSS
 10
2.0
 20
5.28125
 30
0.0
 41
0.171
 42
0.171
  0
INSERT
  5
A4
330
5A
100
AcDbEntity
  8
CCENTER
100
AcDbBlockReference
  2
100CROSS
 10
4.187
 20
5.281
 30
0.0
 41
0.6879999999999999
 42
0.6879999999999999
  0
CIRCLE
  5
A5
330
5A
100
AcDbEntity
  8
CSOLID
100
AcDbCircle
 10
4.187
 20
5.281
 30
0.0
 40
0.3439999999999999
  0
CIRCLE
  5
A6
330
5A
100
AcDbEntity
  8
CSOLID
100
AcDbCircle
 10
4.187
 20
4.031
 30
0.0
 40
0.3439999999999999
  0
INSERT
  5
A7
330
5A
100
AcDbEntity
  8
CCENTER
100
AcDbBlockReference
  2
100CROSS
 10
4.187
 20
4.031
 30
0.0
 41
0.6879999999999999
 42
0.6879999999999999
  0
INSERT
  5
A8
330
5A
100
AcDbEntity
  8
CCENTER
100
AcDbBlockReference
  2
100CROSS
 10
2.561999999999999
 20
3.406
 30
0.0
 41
0.6879999999999999
 42
0.6879999999999999
  0
CIRCLE
  5
A9
330
5A
100
AcDbEntity
  8
CSOLID
100
AcDbCircle
 10
2.561999999999999
 20
3.406
 30
0.0
 40
0.3439999999999999
  0
CIRCLE
  5
AA
330
5A
100
AcDbEntity
  8
CSOLID
100
AcDbCircle
 10
2.561999999999999
 20
4.656
 30
0.0
 40
0.3439999999999999
  0
INSERT
  5
AB
330
5A
100
AcDbEntity
  8
CCENTER
100
AcDbBlockReference
  2
100CROSS
 10
2.561999999999999
 20
4.656
 30
0.0
 41
0.6879999999999999
 42
0.6879999999999999
  0
INSERT
  5
AC
330
5A
100
AcDbEntity
  8
CCENTER
100
AcDbBlockReference
  2
100CROSS
 10
4.812999999999999
 20
4.656
 30
0.0
 41
0.25
 42
0.25
  0
CIRCLE
  5
AD
330
5A
100
AcDbEntity
  8
CSOLID
100
AcDbCircle
 10
4.812999999999999
 20
4.656
 30
0.0
 40
0.1055
  0
CIRCLE
  5
AE
330
5A
100
AcDbEntity
  8
CSOLID
100
AcDbCircle
 10
1.938
 20
4.031
 30
0.0
 40
0.1055
  0
INSERT
  5
AF
330
5A
100
AcDbEntity
  8
CCENTER
100
AcDbBlockReference
  2
100CROSS
 10
1.938
 20
4.031
 30
0.0
 41
0.25
 42
0.25
  0
INSERT
  5
B0
330
5A
100
AcDbEntity
  8
CCENTER
100
AcDbBlockReference
  2
100CROSS
 10
4.75
 20
2.0
 30
0.0
 41
0.375
 42
0.375
  0
CIRCLE
  5
B1
330
5A
100
AcDbEntity
  8
CSOLID
100
AcDbCircle
 10
4.75
 20
2.0
 30
0.0
 40
0.15625
  0
INSERT
  5
B2
330
5A
100
AcDbEntity
  8
CCENTER
100
AcDbBlockReference
  2
100CROSS
 10
4.75
 20
6.0
 30
0.0
 41
0.375
 42
0.375
  0
CIRCLE
  5
B3
330
5A
100
AcDbEntity
  8
CSOLID
100
AcDbCircle
 10
4.75
 20
6.0
 30
0.0
 40
0.15625
  0
INSERT
  5
B4
330
5A
100
AcDbEntity
  8
CCENTER
100
AcDbBlockReference
  2
100CROSS
 10
2.0
 20
2.0
 30
0.0
 41
0.375
 42
0.375
  0
CIRCLE
  5
B5
330
5A
100
AcDbEntity
  8
CSOLID
100
AcDbCircle
 10
2.0
 20
2.0
 30
0.0
 40
0.15625
  0
CIRCLE
  5
B6
330
5A
100
AcDbEntity
  8
CSOLID
100
AcDbCircle
 10
2.0
 20
6.0
 30
0.0
 40
0.15625
  0
INSERT
  5
B7
330
5A
100
AcDbEntity
  8
CCENTER
100
AcDbBlockReference
  2
100CROSS
 10
2.0
 20
6.0
 30
0.0
 41
0.375
 42
0.375
  0
CIRCLE
  5
B8
330
5A
100
AcDbEntity
  8
CHIDDEN
100
AcDbCircle
 10
2.0
 20
6.0
 30
0.0
 40
0.1875
  0
CIRCLE
  5
B9
330
5A
100
AcDbEntity
  8
CHIDDEN
100
AcDbCircle
 10
2.0
 20
2.0
 30
0.0
 40
0.1875
  0
CIRCLE
  5
BA
330
5A
100
AcDbEntity
  8
CHIDDEN
100
AcDbCircle
 10
4.75
 20
6.0
 30
0.0
 40
0.1875
  0
CIRCLE
  5
BB
330
5A
100
AcDbEntity
  8
CHIDDEN
100
AcDbCircle
 10
4.75
 20
2.0
 30
0.0
 40
0.1875
  0
CIRCLE
  5
BC
330
5A
100
AcDbEntity
  8
CHIDDEN
100
AcDbCircle
 10
1.9375
 20
4.03125
 30
0.0
 40
0.125
  0
CIRCLE
  5
BD
330
5A
100
AcDbEntity
  8
CHIDDEN
100
AcDbCircle
 10
4.8125
 20
4.65625
 30
0.0
 40
0.125
  0
ENDBLK
  5
BE
330
5A
100
AcDbEntity
  8
CCENTER
100
AcDbBlockEnd
  0
BLOCK
  5
FB
330
5C
100
AcDbEntity
  8
CDIM
100
AcDbBlockBegin
  2
*D4
 70
     1
 10
0.0
 20
0.0
 30
0.0
  3
*D4
  1

  0
LINE
  5
FC
330
5C
100
AcDbEntity
  8
0
  6
BYBLOCK
 62
     0
100
AcDbLine
 10
11.213919
 20
15.0
 30
0.0
 11
12.834088
 21
15.0
 31
0.0
  0
LINE
  5
FD
330
5C
100
AcDbEntity
  8
0
  6
BYBLOCK
 62
     0
100
AcDbLine
 10
8.213419
 20
10.156
 30
0.0
 11
12.834088
 21
10.156
 31
0.0
  0
LINE
  5
FE
330
5C
100
AcDbEntity
  8
0
  6
BYBLOCK
 62
     0
100
AcDbLine
 10
12.40625
 20
14.57216299999999
 30
0.0
 11
12.40625
 21
13.245426
 31
0.0
  0
LINE
  5
FF
330
5C
100
AcDbEntity
  8
0
  6
BYBLOCK
 62
     0
100
AcDbLine
 10
12.40625
 20
10.583837
 30
0.0
 11
12.40625
 21
11.91057299999999
 31
0.0
  0
SOLID
  5
100
330
5C
100
AcDbEntity
  8
0
  6
BYBLOCK
 62
     0
100
AcDbTrace
 10
12.477556
 20
14.57216299999999
 30
0.0
 11
12.334944
 21
14.57216299999999
 31
0.0
 12
12.40625
 22
15.0
 32
0.0
 13
12.40625
 23
15.0
 33
0.0
  0
SOLID
  5
101
330
5C
100
AcDbEntity
  8
0
  6
BYBLOCK
 62
     0
100
AcDbTrace
 10
12.477556
 20
10.583837
 30
0.0
 11
12.334944
 21
10.583837
 31
0.0
 12
12.40625
 22
10.156
 32
0.0
 13
12.40625
 23
10.156
 33
0.0
  0
TEXT
  5
102
330
5C
100
AcDbEntity
  8
0
  6
BYBLOCK
 62
     0
100
AcDbText
 10
11.664665
 20
12.338411
 30
0.0
 40
0.4791780000000001
  1
4.84
  7
STR
100
AcDbText
  0
POINT
  5
103
330
5C
100
AcDbEntity
  8
DEFPOINTS
  6
BYBLOCK
 62
     0
100
AcDbPoint
 10
11.0
 20
15.0
 30
0.0
  0
POINT
  5
104
330
5C
100
AcDbEntity
  8
DEFPOINTS
  6
BYBLOCK
 62
     0
100
AcDbPoint
 10
7.9995
 20
10.156
 30
0.0
  0
POINT
  5
105
330
5C
100
AcDbEntity
  8
DEFPOINTS
  6
BYBLOCK
 62
     0
100
AcDbPoint
 10
12.40625
 20
10.156
 30
0.0
  0
ENDBLK
  5
106
330
5C
100
AcDbEntity
  8
CDIM
100
AcDbBlockEnd
  0
BLOCK
  5
EF
330
5E
100
AcDbEntity
  8
CDIM
100
AcDbBlockBegin
  2
*D5
 70
     1
 10
0.0
 20
0.0
 30
0.0
  3
*D5
  1

  0
LINE
  5
F0
330
5E
100
AcDbEntity
  8
0
  6
BYBLOCK
 62
     0
100
AcDbLine
 10
17.786081
 20
15.0
 30
0.0
 11
16.13466299999999
 21
15.0
 31
0.0
  0
LINE
  5
F1
330
5E
100
AcDbEntity
  8
0
  6
BYBLOCK
 62
     0
100
AcDbLine
 10
20.036081
 20
9.75
 30
0.0
 11
16.13466299999999
 21
9.75
 31
0.0
  0
LINE
  5
F2
330
5E
100
AcDbEntity
  8
0
  6
BYBLOCK
 62
     0
100
AcDbLine
 10
16.5625
 20
14.57216299999999
 30
0.0
 11
16.5625
 21
13.042427
 31
0.0
  0
LINE
  5
F3
330
5E
100
AcDbEntity
  8
0
  6
BYBLOCK
 62
     0
100
AcDbLine
 10
16.5625
 20
10.177838
 30
0.0
 11
16.5625
 21
11.707574
 31
0.0
  0
SOLID
  5
F4
330
5E
100
AcDbEntity
  8
0
  6
BYBLOCK
 62
     0
100
AcDbTrace
 10
16.63380599999999
 20
14.57216299999999
 30
0.0
 11
16.491194
 21
14.57216299999999
 31
0.0
 12
16.5625
 22
15.0
 32
0.0
 13
16.5625
 23
15.0
 33
0.0
  0
SOLID
  5
F5
330
5E
100
AcDbEntity
  8
0
  6
BYBLOCK
 62
     0
100
AcDbTrace
 10
16.63380599999999
 20
10.177838
 30
0.0
 11
16.491194
 21
10.177838
 31
0.0
 12
16.5625
 22
9.75
 32
0.0
 13
16.5625
 23
9.75
 33
0.0
  0
TEXT
  5
F6
330
5E
100
AcDbEntity
  8
0
  6
BYBLOCK
 62
     0
100
AcDbText
 10
15.83232399999999
 20
12.135411
 30
0.0
 40
0.4791780000000001
  1
5.25
  7
STR
100
AcDbText
  0
POINT
  5
F7
330
5E
100
AcDbEntity
  8
DEFPOINTS
  6
BYBLOCK
 62
     0
100
AcDbPoint
 10
18.0
 20
15.0
 30
0.0
  0
POINT
  5
F8
330
5E
100
AcDbEntity
  8
DEFPOINTS
  6
BYBLOCK
 62
     0
100
AcDbPoint
 10
20.24999999999999
 20
9.75
 30
0.0
  0
POINT
  5
F9
330
5E
100
AcDbEntity
  8
DEFPOINTS
  6
BYBLOCK
 62
     0
100
AcDbPoint
 10
16.5625
 20
9.75
 30
0.0
  0
ENDBLK
  5
FA
330
5E
100
AcDbEntity
  8
CDIM
100
AcDbBlockEnd
  0
BLOCK
  5
BF
330
60
100
AcDbEntity
  8
CDIM
100
AcDbBlockBegin
  2
*D6
 70
     1
 10
0.0
 20
0.0
 30
0.0
  3
*D6
  1

  0
LINE
  5
C0
330
60
100
AcDbEntity
  8
0
  6
BYBLOCK
 62
     0
100
AcDbLine
 10
3.0
 20
15.213919
 30
0.0
 11
3.0
 21
16.365338
 31
0.0
  0
LINE
  5
C1
330
60
100
AcDbEntity
  8
0
  6
BYBLOCK
 62
     0
100
AcDbLine
 10
7.9995
 20
11.619919
 30
0.0
 11
7.9995
 21
16.365338
 31
0.0
  0
LINE
  5
C2
330
60
100
AcDbEntity
  8
0
  6
BYBLOCK
 62
     0
100
AcDbLine
 10
3.427837999999999
 20
15.9375
 30
0.0
 11
4.341736
 21
15.9375
 31
0.0
  0
LINE
  5
C3
330
60
100
AcDbEntity
  8
0
  6
BYBLOCK
 62
     0
100
AcDbLine
 10
7.571661999999999
 20
15.9375
 30
0.0
 11
6.657763
 21
15.9375
 31
0.0
  0
SOLID
  5
C4
330
60
100
AcDbEntity
  8
0
  6
BYBLOCK
 62
     0
100
AcDbTrace
 10
3.427837999999999
 20
15.866194
 30
0.0
 11
3.427837999999999
 21
16.00880599999999
 31
0.0
 12
3.0
 22
15.9375
 32
0.0
 13
3.0
 23
15.9375
 33
0.0
  0
SOLID
  5
C5
330
60
100
AcDbEntity
  8
0
  6
BYBLOCK
 62
     0
100
AcDbTrace
 10
7.571661999999999
 20
15.866194
 30
0.0
 11
7.571661999999999
 21
16.00880599999999
 31
0.0
 12
7.9995
 22
15.9375
 32
0.0
 13
7.9995
 23
15.9375
 33
0.0
  0
TEXT
  5
C6
330
60
100
AcDbEntity
  8
0
  6
BYBLOCK
 62
     0
100
AcDbText
 10
4.769573999999999
 20
15.69791099999999
 30
0.0
 40
0.4791780000000001
  1
5.00
  7
STR
100
AcDbText
  0
POINT
  5
C7
330
60
100
AcDbEntity
  8
DEFPOINTS
  6
BYBLOCK
 62
     0
100
AcDbPoint
 10
3.0
 20
15.0
 30
0.0
  0
POINT
  5
C8
330
60
100
AcDbEntity
  8
DEFPOINTS
  6
BYBLOCK
 62
     0
100
AcDbPoint
 10
7.9995
 20
11.40599999999999
 30
0.0
  0
POINT
  5
C9
330
60
100
AcDbEntity
  8
DEFPOINTS
  6
BYBLOCK
 62
     0
100
AcDbPoint
 10
7.9995
 20
15.9375
 30
0.0
  0
ENDBLK
  5
CA
330
60
100
AcDbEntity
  8
CDIM
100
AcDbBlockEnd
  0
BLOCK
  5
107
330
62
100
AcDbEntity
  8
CDIM
100
AcDbBlockBegin
  2
*D7
 70
     1
 10
0.0
 20
0.0
 30
0.0
  3
*D7
  1

  0
LINE
  5
108
330
62
100
AcDbEntity
  8
0
  6
BYBLOCK
 62
     0
100
AcDbLine
 10
13.0
 20
15.213919
 30
0.0
 11
13.0
 21
16.365338
 31
0.0
  0
LINE
  5
109
330
62
100
AcDbEntity
  8
0
  6
BYBLOCK
 62
     0
100
AcDbLine
 10
16.0
 20
15.213919
 30
0.0
 11
16.0
 21
16.365338
 31
0.0
  0
LINE
  5
10A
330
62
100
AcDbEntity
  8
0
  6
BYBLOCK
 62
     0
100
AcDbLine
 10
16.427838
 20
15.9375
 30
0.0
 11
16.855675
 21
15.9375
 31
0.0
  0
LINE
  5
10B
330
62
100
AcDbEntity
  8
0
  6
BYBLOCK
 62
     0
100
AcDbLine
 10
12.572163
 20
15.9375
 30
0.0
 11
12.144325
 21
15.9375
 31
0.0
  0
SOLID
  5
10C
330
62
100
AcDbEntity
  8
0
  6
BYBLOCK
 62
     0
100
AcDbTrace
 10
16.427838
 20
15.866194
 30
0.0
 11
16.427838
 21
16.00880599999999
 31
0.0
 12
16.0
 22
15.9375
 32
0.0
 13
16.0
 23
15.9375
 33
0.0
  0
SOLID
  5
10D
330
62
100
AcDbEntity
  8
0
  6
BYBLOCK
 62
     0
100
AcDbTrace
 10
12.572163
 20
15.866194
 30
0.0
 11
12.572163
 21
16.00880599999999
 31
0.0
 12
13.0
 22
15.9375
 32
0.0
 13
13.0
 23
15.9375
 33
0.0
  0
TEXT
  5
10E
330
62
100
AcDbEntity
  8
0
  6
BYBLOCK
 62
     0
100
AcDbText
 10
13.846013
 20
15.69791099999999
 30
0.0
 40
0.4791780000000001
  1
3.00
  7
STR
100
AcDbText
  0
POINT
  5
10F
330
62
100
AcDbEntity
  8
DEFPOINTS
  6
BYBLOCK
 62
     0
100
AcDbPoint
 10
13.0
 20
15.0
 30
0.0
  0
POINT
  5
110
330
62
100
AcDbEntity
  8
DEFPOINTS
  6
BYBLOCK
 62
     0
100
AcDbPoint
 10
16.0
 20
15.0
 30
0.0
  0
POINT
  5
111
330
62
100
AcDbEntity
  8
DEFPOINTS
  6
BYBLOCK
 62
     0
100
AcDbPoint
 10
16.0
 20
15.9375
 30
0.0
  0
ENDBLK
  5
112
330
62
100
AcDbEntity
  8
CDIM
100
AcDbBlockEnd
  0
BLOCK
  5
CB
330
64
100
AcDbEntity
  8
CDIM
100
AcDbBlockBegin
  2
*D8
 70
     1
 10
0.0
 20
0.0
 30
0.0
  3
*D8
  1

  0
LINE
  5
CC
330
64
100
AcDbEntity
  8
0
  6
BYBLOCK
 62
     0
100
AcDbLine
 10
26.0
 20
15.213919
 30
0.0
 11
26.0
 21
16.365338
 31
0.0
  0
LINE
  5
CD
330
64
100
AcDbEntity
  8
0
  6
BYBLOCK
 62
     0
100
AcDbLine
 10
20.24999999999999
 20
12.838919
 30
0.0
 11
20.24999999999999
 21
16.365338
 31
0.0
  0
LINE
  5
CE
330
64
100
AcDbEntity
  8
0
  6
BYBLOCK
 62
     0
100
AcDbLine
 10
25.572163
 20
15.9375
 30
0.0
 11
24.283013
 21
15.9375
 31
0.0
  0
LINE
  5
CF
330
64
100
AcDbEntity
  8
0
  6
BYBLOCK
 62
     0
100
AcDbLine
 10
20.677837
 20
15.9375
 30
0.0
 11
21.96698599999999
 21
15.9375
 31
0.0
  0
SOLID
  5
D0
330
64
100
AcDbEntity
  8
0
  6
BYBLOCK
 62
     0
100
AcDbTrace
 10
25.572163
 20
15.866194
 30
0.0
 11
25.572163
 21
16.00880599999999
 31
0.0
 12
26.0
 22
15.9375
 32
0.0
 13
26.0
 23
15.9375
 33
0.0
  0
SOLID
  5
D1
330
64
100
AcDbEntity
  8
0
  6
BYBLOCK
 62
     0
100
AcDbTrace
 10
20.677837
 20
15.866194
 30
0.0
 11
20.677837
 21
16.00880599999999
 31
0.0
 12
20.24999999999999
 22
15.9375
 32
0.0
 13
20.24999999999999
 23
15.9375
 33
0.0
  0
TEXT
  5
D2
330
64
100
AcDbEntity
  8
0
  6
BYBLOCK
 62
     0
100
AcDbText
 10
22.39482399999999
 20
15.69791099999999
 30
0.0
 40
0.4791780000000001
  1
5.75
  7
STR
100
AcDbText
  0
POINT
  5
D3
330
64
100
AcDbEntity
  8
DEFPOINTS
  6
BYBLOCK
 62
     0
100
AcDbPoint
 10
26.0
 20
15.0
 30
0.0
  0
POINT
  5
D4
330
64
100
AcDbEntity
  8
DEFPOINTS
  6
BYBLOCK
 62
     0
100
AcDbPoint
 10
20.24999999999999
 20
12.625
 30
0.0
  0
POINT
  5
D5
330
64
100
AcDbEntity
  8
DEFPOINTS
  6
BYBLOCK
 62
     0
100
AcDbPoint
 10
20.24999999999999
 20
15.9375
 30
0.0
  0
ENDBLK
  5
D6
330
64
100
AcDbEntity
  8
CDIM
100
AcDbBlockEnd
  0
BLOCK
  5
D7
330
66
100
AcDbEntity
  8
CDIM
100
AcDbBlockBegin
  2
*D9
 70
     1
 10
0.0
 20
0.0
 30
0.0
  3
*D9
  1

  0
LINE
  5
D8
330
66
100
AcDbEntity
  8
0
  6
BYBLOCK
 62
     0
100
AcDbLine
 10
26.0
 20
15.213919
 30
0.0
 11
26.0
 21
17.64885
 31
0.0
  0
LINE
  5
D9
330
66
100
AcDbEntity
  8
0
  6
BYBLOCK
 62
     0
100
AcDbLine
 10
18.0
 20
15.213919
 30
0.0
 11
18.0
 21
17.64885
 31
0.0
  0
LINE
  5
DA
330
66
100
AcDbEntity
  8
0
  6
BYBLOCK
 62
     0
100
AcDbLine
 10
25.572163
 20
17.221013
 30
0.0
 11
23.158014
 21
17.221013
 31
0.0
  0
LINE
  5
DB
330
66
100
AcDbEntity
  8
0
  6
BYBLOCK
 62
     0
100
AcDbLine
 10
18.427838
 20
17.221013
 30
0.0
 11
20.84198699999999
 21
17.221013
 31
0.0
  0
SOLID
  5
DC
330
66
100
AcDbEntity
  8
0
  6
BYBLOCK
 62
     0
100
AcDbTrace
 10
25.572163
 20
17.149706
 30
0.0
 11
25.572163
 21
17.292319
 31
0.0
 12
26.0
 22
17.221013
 32
0.0
 13
26.0
 23
17.221013
 33
0.0
  0
SOLID
  5
DD
330
66
100
AcDbEntity
  8
0
  6
BYBLOCK
 62
     0
100
AcDbTrace
 10
18.427838
 20
17.149706
 30
0.0
 11
18.427838
 21
17.292319
 31
0.0
 12
18.0
 22
17.221013
 32
0.0
 13
18.0
 23
17.221013
 33
0.0
  0
TEXT
  5
DE
330
66
100
AcDbEntity
  8
0
  6
BYBLOCK
 62
     0
100
AcDbText
 10
21.269824
 20
16.981424
 30
0.0
 40
0.4791780000000001
  1
8.00
  7
STR
100
AcDbText
  0
POINT
  5
DF
330
66
100
AcDbEntity
  8
DEFPOINTS
  6
BYBLOCK
 62
     0
100
AcDbPoint
 10
26.0
 20
15.0
 30
0.0
  0
POINT
  5
E0
330
66
100
AcDbEntity
  8
DEFPOINTS
  6
BYBLOCK
 62
     0
100
AcDbPoint
 10
18.0
 20
15.0
 30
0.0
  0
POINT
  5
E1
330
66
100
AcDbEntity
  8
DEFPOINTS
  6
BYBLOCK
 62
     0
100
AcDbPoint
 10
18.0
 20
17.221013
 30
0.0
  0
ENDBLK
  5
E2
330
66
100
AcDbEntity
  8
CDIM
100
AcDbBlockEnd
  0
BLOCK
  5
E3
330
68
100
AcDbEntity
  8
CDIM
100
AcDbBlockBegin
  2
*D10
 70
     1
 10
0.0
 20
0.0
 30
0.0
  3
*D10
  1

  0
LINE
  5
E4
330
68
100
AcDbEntity
  8
0
  6
BYBLOCK
 62
     0
100
AcDbLine
 10
26.213919
 20
15.0
 30
0.0
 11
27.615338
 21
15.0
 31
0.0
  0
LINE
  5
E5
330
68
100
AcDbEntity
  8
0
  6
BYBLOCK
 62
     0
100
AcDbLine
 10
26.213919
 20
6.0
 30
0.0
 11
27.615338
 21
6.0
 31
0.0
  0
LINE
  5
E6
330
68
100
AcDbEntity
  8
0
  6
BYBLOCK
 62
     0
100
AcDbLine
 10
27.1875
 20
14.57216299999999
 30
0.0
 11
27.1875
 21
11.167427
 31
0.0
  0
LINE
  5
E7
330
68
100
AcDbEntity
  8
0
  6
BYBLOCK
 62
     0
100
AcDbLine
 10
27.1875
 20
6.427837999999999
 30
0.0
 11
27.1875
 21
9.832573
 31
0.0
  0
SOLID
  5
E8
330
68
100
AcDbEntity
  8
0
  6
BYBLOCK
 62
     0
100
AcDbTrace
 10
27.25880599999999
 20
14.57216299999999
 30
0.0
 11
27.116194
 21
14.57216299999999
 31
0.0
 12
27.1875
 22
15.0
 32
0.0
 13
27.1875
 23
15.0
 33
0.0
  0
SOLID
  5
E9
330
68
100
AcDbEntity
  8
0
  6
BYBLOCK
 62
     0
100
AcDbTrace
 10
27.25880599999999
 20
6.427837999999999
 30
0.0
 11
27.116194
 21
6.427837999999999
 31
0.0
 12
27.1875
 22
6.0
 32
0.0
 13
27.1875
 23
6.0
 33
0.0
  0
TEXT
  5
EA
330
68
100
AcDbEntity
  8
0
  6
BYBLOCK
 62
     0
100
AcDbText
 10
26.45732399999999
 20
10.260411
 30
0.0
 40
0.4791780000000001
  1
9.00
  7
STR
100
AcDbText
  0
POINT
  5
EB
330
68
100
AcDbEntity
  8
DEFPOINTS
  6
BYBLOCK
 62
     0
100
AcDbPoint
 10
26.0
 20
15.0
 30
0.0
  0
POINT
  5
EC
330
68
100
AcDbEntity
  8
DEFPOINTS
  6
BYBLOCK
 62
     0
100
AcDbPoint
 10
26.0
 20
6.0
 30
0.0
  0
POINT
  5
ED
330
68
100
AcDbEntity
  8
DEFPOINTS
  6
BYBLOCK
 62
     0
100
AcDbPoint
 10
27.1875
 20
6.0
 30
0.0
  0
ENDBLK
  5
EE
330
68
100
AcDbEntity
  8
CDIM
100
AcDbBlockEnd
  0
BLOCK
  5
93
330
90
100
AcDbEntity
  8
0
100
AcDbBlockBegin
  2
050CROSS
 70
     0
 10
15.34375
 20
9.125
 30
0.0
  3
050CROSS
  1

  0
LINE
  5
94
330
90
100
AcDbEntity
  8
0
100
AcDbLine
 10
15.34375
 20
9.40625
 30
0.0
 11
15.34375
 21
9.90625
 31
0.0
  0
LINE
  5
95
330
90
100
AcDbEntity
  8
0
100
AcDbLine
 10
15.34375
 20
9.0
 30
0.0
 11
15.34375
 21
9.25
 31
0.0
  0
LINE
  5
96
330
90
100
AcDbEntity
  8
0
100
AcDbLine
 10
15.34375
 20
8.28125
 30
0.0
 11
15.34375
 21
8.84375
 31
0.0
  0
LINE
  5
97
330
90
100
AcDbEntity
  8
0
100
AcDbLine
 10
15.59375
 20
9.125
 30
0.0
 11
16.15625
 21
9.125
 31
0.0
  0
LINE
  5
98
330
90
100
AcDbEntity
  8
0
100
AcDbLine
 10
15.25
 20
9.125
 30
0.0
 11
15.4375
 21
9.125
 31
0.0
  0
LINE
  5
99
330
90
100
AcDbEntity
  8
0
100
AcDbLine
 10
14.53125
 20
9.125
 30
0.0
 11
15.09375
 21
9.125
 31
0.0
  0
ENDBLK
  5
9A
330
90
100
AcDbEntity
  8
0
100
AcDbBlockEnd
  0
BLOCK
  5
114
330
113
100
AcDbEntity
  8
0
100
AcDbBlockBegin
  2
*D12
 70
     1
 10
0.0
 20
0.0
 30
0.0
  3
*D12
  1

  0
LINE
  5
115
330
113
100
AcDbEntity
  8
0
  6
BYBLOCK
 62
     0
100
AcDbLine
 10
11.9375
 20
17.125
 30
0.0
 11
13.46125
 21
17.125
 31
0.0
  0
LINE
  5
116
330
113
100
AcDbEntity
  8
0
  6
BYBLOCK
 62
     0
100
AcDbLine
 10
8.937000000000001
 20
12.28099999999999
 30
0.0
 11
13.46125
 21
12.28099999999999
 31
0.0
  0
LINE
  5
117
330
113
100
AcDbEntity
  8
0
  6
BYBLOCK
 62
     0
100
AcDbLine
 10
13.28125
 20
16.945
 30
0.0
 11
13.28125
 21
14.88299999999999
 31
0.0
  0
LINE
  5
118
330
113
100
AcDbEntity
  8
0
  6
BYBLOCK
 62
     0
100
AcDbLine
 10
13.28125
 20
12.46099999999999
 30
0.0
 11
13.28125
 21
14.523
 31
0.0
  0
SOLID
  5
119
330
113
100
AcDbEntity
  8
0
  6
BYBLOCK
 62
     0
100
AcDbTrace
 10
13.25125
 20
16.945
 30
0.0
 11
13.31125
 21
16.945
 31
0.0
 12
13.28125
 22
17.125
 32
0.0
 13
13.28125
 23
17.125
 33
0.0
  0
SOLID
  5
11A
330
113
100
AcDbEntity
  8
0
  6
BYBLOCK
 62
     0
100
AcDbTrace
 10
13.25125
 20
12.46099999999999
 30
0.0
 11
13.31125
 21
12.46099999999999
 31
0.0
 12
13.28125
 22
12.28099999999999
 32
0.0
 13
13.28125
 23
12.28099999999999
 33
0.0
  0
TEXT
  5
11B
330
113
100
AcDbEntity
  8
0
  6
BYBLOCK
 62
     0
100
AcDbText
 10
12.84625
 20
14.613
 30
0.0
 40
0.18
  1
4.8440
 72
     1
 11
13.28125
 21
14.70299999999999
 31
0.0
100
AcDbText
 73
     2
  0
POINT
  5
11C
330
113
100
AcDbEntity
  8
DEFPOINTS
  6
BYBLOCK
 62
     0
100
AcDbPoint
 10
11.875
 20
17.125
 30
0.0
  0
POINT
  5
11D
330
113
100
AcDbEntity
  8
DEFPOINTS
  6
BYBLOCK
 62
     0
100
AcDbPoint
 10
8.874499999999999
 20
12.28099999999999
 30
0.0
  0
POINT
  5
11E
330
113
100
AcDbEntity
  8
DEFPOINTS
  6
BYBLOCK
 62
     0
100
AcDbPoint
 10
13.28125
 20
12.28099999999999
 30
0.0
  0
ENDBLK
  5
11F
330
113
100
AcDbEntity
  8
0
100
AcDbBlockEnd
  0
BLOCK
  5
121
330
120
100
AcDbEntity
  8
0
100
AcDbBlockBegin
  2
*D13
 70
     1
 10
0.0
 20
0.0
 30
0.0
  3
*D13
  1

  0
LINE
  5
122
330
120
100
AcDbEntity
  8
0
  6
BYBLOCK
 62
     0
100
AcDbLine
 10
20.3125
 20
17.125
 30
0.0
 11
18.7575
 21
17.125
 31
0.0
  0
LINE
  5
123
330
120
100
AcDbEntity
  8
0
  6
BYBLOCK
 62
     0
100
AcDbLine
 10
22.5625
 20
11.875
 30
0.0
 11
18.7575
 21
11.875
 31
0.0
  0
LINE
  5
124
330
120
100
AcDbEntity
  8
0
  6
BYBLOCK
 62
     0
100
AcDbLine
 10
18.9375
 20
16.945
 30
0.0
 11
18.9375
 21
14.67999999999999
 31
0.0
  0
LINE
  5
125
330
120
100
AcDbEntity
  8
0
  6
BYBLOCK
 62
     0
100
AcDbLine
 10
18.9375
 20
12.055
 30
0.0
 11
18.9375
 21
14.32
 31
0.0
  0
SOLID
  5
126
330
120
100
AcDbEntity
  8
0
  6
BYBLOCK
 62
     0
100
AcDbTrace
 10
18.90749999999999
 20
16.945
 30
0.0
 11
18.9675
 21
16.945
 31
0.0
 12
18.9375
 22
17.125
 32
0.0
 13
18.9375
 23
17.125
 33
0.0
  0
SOLID
  5
127
330
120
100
AcDbEntity
  8
0
  6
BYBLOCK
 62
     0
100
AcDbTrace
 10
18.90749999999999
 20
12.055
 30
0.0
 11
18.9675
 21
12.055
 31
0.0
 12
18.9375
 22
11.875
 32
0.0
 13
18.9375
 23
11.875
 33
0.0
  0
TEXT
  5
128
330
120
100
AcDbEntity
  8
0
  6
BYBLOCK
 62
     0
100
AcDbText
 10
18.5175
 20
14.41
 30
0.0
 40
0.18
  1
5.2500
 72
     1
 11
18.9375
 21
14.5
 31
0.0
100
AcDbText
 73
     2
  0
POINT
  5
129
330
120
100
AcDbEntity
  8
DEFPOINTS
  6
BYBLOCK
 62
     0
100
AcDbPoint
 10
20.375
 20
17.125
 30
0.0
  0
POINT
  5
12A
330
120
100
AcDbEntity
  8
DEFPOINTS
  6
BYBLOCK
 62
     0
100
AcDbPoint
 10
22.625
 20
11.875
 30
0.0
  0
POINT
  5
12B
330
120
100
AcDbEntity
  8
DEFPOINTS
  6
BYBLOCK
 62
     0
100
AcDbPoint
 10
18.9375
 20
11.875
 30
0.0
  0
ENDBLK
  5
12C
330
120
100
AcDbEntity
  8
0
100
AcDbBlockEnd
  0
BLOCK
  5
12E
330
12D
100
AcDbEntity
  8
0
100
AcDbBlockBegin
  2
*D14
 70
     1
 10
0.0
 20
0.0
 30
0.0
  3
*D14
  1

  0
LINE
  5
12F
330
12D
100
AcDbEntity
  8
0
  6
BYBLOCK
 62
     0
100
AcDbLine
 10
3.875
 20
17.1875
 30
0.0
 11
3.875
 21
18.2425
 31
0.0
  0
LINE
  5
130
330
12D
100
AcDbEntity
  8
0
  6
BYBLOCK
 62
     0
100
AcDbLine
 10
8.874499999999999
 20
13.5935
 30
0.0
 11
8.874499999999999
 21
18.2425
 31
0.0
  0
LINE
  5
131
330
12D
100
AcDbEntity
  8
0
  6
BYBLOCK
 62
     0
100
AcDbLine
 10
4.054999999999999
 20
18.0625
 30
0.0
 11
5.834749999999999
 21
18.0625
 31
0.0
  0
LINE
  5
132
330
12D
100
AcDbEntity
  8
0
  6
BYBLOCK
 62
     0
100
AcDbLine
 10
8.694499999999999
 20
18.0625
 30
0.0
 11
6.914749999999999
 21
18.0625
 31
0.0
  0
SOLID
  5
133
330
12D
100
AcDbEntity
  8
0
  6
BYBLOCK
 62
     0
100
AcDbTrace
 10
4.054999999999999
 20
18.0925
 30
0.0
 11
4.054999999999999
 21
18.0325
 31
0.0
 12
3.875
 22
18.0625
 32
0.0
 13
3.875
 23
18.0625
 33
0.0
  0
SOLID
  5
134
330
12D
100
AcDbEntity
  8
0
  6
BYBLOCK
 62
     0
100
AcDbTrace
 10
8.694499999999999
 20
18.0925
 30
0.0
 11
8.694499999999999
 21
18.0325
 31
0.0
 12
8.874499999999999
 22
18.0625
 32
0.0
 13
8.874499999999999
 23
18.0625
 33
0.0
  0
TEXT
  5
135
330
12D
100
AcDbEntity
  8
0
  6
BYBLOCK
 62
     0
100
AcDbText
 10
5.924749999999999
 20
17.9725
 30
0.0
 40
0.18
  1
4.9995
 72
     1
 11
6.374749999999999
 21
18.0625
 31
0.0
100
AcDbText
 73
     2
  0
POINT
  5
136
330
12D
100
AcDbEntity
  8
DEFPOINTS
  6
BYBLOCK
 62
     0
100
AcDbPoint
 10
3.875
 20
17.125
 30
0.0
  0
POINT
  5
137
330
12D
100
AcDbEntity
  8
DEFPOINTS
  6
BYBLOCK
 62
     0
100
AcDbPoint
 10
8.874499999999999
 20
13.53099999999999
 30
0.0
  0
POINT
  5
138
330
12D
100
AcDbEntity
  8
DEFPOINTS
  6
BYBLOCK
 62
     0
100
AcDbPoint
 10
8.874499999999999
 20
18.0625
 30
0.0
  0
ENDBLK
  5
139
330
12D
100
AcDbEntity
  8
0
100
AcDbBlockEnd
  0
BLOCK
  5
13B
330
13A
100
AcDbEntity
  8
0
100
AcDbBlockBegin
  2
*D15
 70
     1
 10
0.0
 20
0.0
 30
0.0
  3
*D15
  1

  0
LINE
  5
13C
330
13A
100
AcDbEntity
  8
0
  6
BYBLOCK
 62
     0
100
AcDbLine
 10
14.625
 20
17.1875
 30
0.0
 11
14.625
 21
18.2425
 31
0.0
  0
LINE
  5
13D
330
13A
100
AcDbEntity
  8
0
  6
BYBLOCK
 62
     0
100
AcDbLine
 10
17.625
 20
17.1875
 30
0.0
 11
17.625
 21
18.2425
 31
0.0
  0
LINE
  5
13E
330
13A
100
AcDbEntity
  8
0
  6
BYBLOCK
 62
     0
100
AcDbLine
 10
14.805
 20
18.0625
 30
0.0
 11
15.721189
 21
18.0625
 31
0.0
  0
LINE
  5
13F
330
13A
100
AcDbEntity
  8
0
  6
BYBLOCK
 62
     0
100
AcDbLine
 10
17.445
 20
18.0625
 30
0.0
 11
16.681189
 21
18.0625
 31
0.0
  0
SOLID
  5
140
330
13A
100
AcDbEntity
  8
0
  6
BYBLOCK
 62
     0
100
AcDbTrace
 10
14.805
 20
18.0925
 30
0.0
 11
14.805
 21
18.0325
 31
0.0
 12
14.625
 22
18.0625
 32
0.0
 13
14.625
 23
18.0625
 33
0.0
  0
SOLID
  5
141
330
13A
100
AcDbEntity
  8
0
  6
BYBLOCK
 62
     0
100
AcDbTrace
 10
17.445
 20
18.0925
 30
0.0
 11
17.445
 21
18.0325
 31
0.0
 12
17.625
 22
18.0625
 32
0.0
 13
17.625
 23
18.0625
 33
0.0
  0
TEXT
  5
142
330
13A
100
AcDbEntity
  8
0
  6
BYBLOCK
 62
     0
100
AcDbText
 10
15.811189
 20
17.9725
 30
0.0
 40
0.18
  1
3.0000
 72
     1
 11
16.201189
 21
18.0625
 31
0.0
100
AcDbText
 73
     2
  0
POINT
  5
143
330
13A
100
AcDbEntity
  8
DEFPOINTS
  6
BYBLOCK
 62
     0
100
AcDbPoint
 10
14.625
 20
17.125
 30
0.0
  0
POINT
  5
144
330
13A
100
AcDbEntity
  8
DEFPOINTS
  6
BYBLOCK
 62
     0
100
AcDbPoint
 10
17.625
 20
17.125
 30
0.0
  0
POINT
  5
145
330
13A
100
AcDbEntity
  8
DEFPOINTS
  6
BYBLOCK
 62
     0
100
AcDbPoint
 10
17.625
 20
18.0625
 30
0.0
  0
ENDBLK
  5
146
330
13A
100
AcDbEntity
  8
0
100
AcDbBlockEnd
  0
BLOCK
  5
148
330
147
100
AcDbEntity
  8
0
100
AcDbBlockBegin
  2
*D16
 70
     1
 10
0.0
 20
0.0
 30
0.0
  3
*D16
  1

  0
LINE
  5
149
330
147
100
AcDbEntity
  8
0
  6
BYBLOCK
 62
     0
100
AcDbLine
 10
28.375
 20
17.1875
 30
0.0
 11
28.375
 21
18.2425
 31
0.0
  0
LINE
  5
14A
330
147
100
AcDbEntity
  8
0
  6
BYBLOCK
 62
     0
100
AcDbLine
 10
22.625
 20
14.8125
 30
0.0
 11
22.625
 21
18.2425
 31
0.0
  0
LINE
  5
14B
330
147
100
AcDbEntity
  8
0
  6
BYBLOCK
 62
     0
100
AcDbLine
 10
28.195
 20
18.0625
 30
0.0
 11
26.01
 21
18.0625
 31
0.0
  0
LINE
  5
14C
330
147
100
AcDbEntity
  8
0
  6
BYBLOCK
 62
     0
100
AcDbLine
 10
22.80499999999999
 20
18.0625
 30
0.0
 11
24.99
 21
18.0625
 31
0.0
  0
SOLID
  5
14D
330
147
100
AcDbEntity
  8
0
  6
BYBLOCK
 62
     0
100
AcDbTrace
 10
28.195
 20
18.0925
 30
0.0
 11
28.195
 21
18.0325
 31
0.0
 12
28.375
 22
18.0625
 32
0.0
 13
28.375
 23
18.0625
 33
0.0
  0
SOLID
  5
14E
330
147
100
AcDbEntity
  8
0
  6
BYBLOCK
 62
     0
100
AcDbTrace
 10
22.80499999999999
 20
18.0925
 30
0.0
 11
22.80499999999999
 21
18.0325
 31
0.0
 12
22.625
 22
18.0625
 32
0.0
 13
22.625
 23
18.0625
 33
0.0
  0
TEXT
  5
14F
330
147
100
AcDbEntity
  8
0
  6
BYBLOCK
 62
     0
100
AcDbText
 10
25.08
 20
17.9725
 30
0.0
 40
0.18
  1
5.7500
 72
     1
 11
25.5
 21
18.0625
 31
0.0
100
AcDbText
 73
     2
  0
POINT
  5
150
330
147
100
AcDbEntity
  8
DEFPOINTS
  6
BYBLOCK
 62
     0
100
AcDbPoint
 10
28.375
 20
17.125
 30
0.0
  0
POINT
  5
151
330
147
100
AcDbEntity
  8
DEFPOINTS
  6
BYBLOCK
 62
     0
100
AcDbPoint
 10
22.625
 20
14.75
 30
0.0
  0
POINT
  5
152
330
147
100
AcDbEntity
  8
DEFPOINTS
  6
BYBLOCK
 62
     0
100
AcDbPoint
 10
22.625
 20
18.0625
 30
0.0
  0
ENDBLK
  5
153
330
147
100
AcDbEntity
  8
0
100
AcDbBlockEnd
  0
BLOCK
  5
155
330
154
100
AcDbEntity
  8
0
100
AcDbBlockBegin
  2
*D17
 70
     1
 10
0.0
 20
0.0
 30
0.0
  3
*D17
  1

  0
LINE
  5
156
330
154
100
AcDbEntity
  8
0
  6
BYBLOCK
 62
     0
100
AcDbLine
 10
28.375
 20
17.1875
 30
0.0
 11
28.375
 21
19.52601299999999
 31
0.0
  0
LINE
  5
157
330
154
100
AcDbEntity
  8
0
  6
BYBLOCK
 62
     0
100
AcDbLine
 10
20.375
 20
17.1875
 30
0.0
 11
20.375
 21
19.52601299999999
 31
0.0
  0
LINE
  5
158
330
154
100
AcDbEntity
  8
0
  6
BYBLOCK
 62
     0
100
AcDbLine
 10
28.195
 20
19.34601299999999
 30
0.0
 11
24.855
 21
19.34601299999999
 31
0.0
  0
LINE
  5
159
330
154
100
AcDbEntity
  8
0
  6
BYBLOCK
 62
     0
100
AcDbLine
 10
20.55499999999999
 20
19.34601299999999
 30
0.0
 11
23.89499999999999
 21
19.34601299999999
 31
0.0
  0
SOLID
  5
15A
330
154
100
AcDbEntity
  8
0
  6
BYBLOCK
 62
     0
100
AcDbTrace
 10
28.195
 20
19.376013
 30
0.0
 11
28.195
 21
19.316013
 31
0.0
 12
28.375
 22
19.34601299999999
 32
0.0
 13
28.375
 23
19.34601299999999
 33
0.0
  0
SOLID
  5
15B
330
154
100
AcDbEntity
  8
0
  6
BYBLOCK
 62
     0
100
AcDbTrace
 10
20.55499999999999
 20
19.376013
 30
0.0
 11
20.55499999999999
 21
19.316013
 31
0.0
 12
20.375
 22
19.34601299999999
 32
0.0
 13
20.375
 23
19.34601299999999
 33
0.0
  0
TEXT
  5
15C
330
154
100
AcDbEntity
  8
0
  6
BYBLOCK
 62
     0
100
AcDbText
 10
23.98499999999999
 20
19.256013
 30
0.0
 40
0.18
  1
8.0000
 72
     1
 11
24.375
 21
19.34601299999999
 31
0.0
100
AcDbText
 73
     2
  0
POINT
  5
15D
330
154
100
AcDbEntity
  8
DEFPOINTS
  6
BYBLOCK
 62
     0
100
AcDbPoint
 10
28.375
 20
17.125
 30
0.0
  0
POINT
  5
15E
330
154
100
AcDbEntity
  8
DEFPOINTS
  6
BYBLOCK
 62
     0
100
AcDbPoint
 10
20.375
 20
17.125
 30
0.0
  0
POINT
  5
15F
330
154
100
AcDbEntity
  8
DEFPOINTS
  6
BYBLOCK
 62
     0
100
AcDbPoint
 10
20.375
 20
19.34601299999999
 30
0.0
  0
ENDBLK
  5
160
330
154
100
AcDbEntity
  8
0
100
AcDbBlockEnd
  0
BLOCK
  5
162
330
161
100
AcDbEntity
  8
0
100
AcDbBlockBegin
  2
*D18
 70
     1
 10
0.0
 20
0.0
 30
0.0
  3
*D18
  1

  0
LINE
  5
163
330
161
100
AcDbEntity
  8
0
  6
BYBLOCK
 62
     0
100
AcDbLine
 10
28.4375
 20
17.125
 30
0.0
 11
29.74249999999999
 21
17.125
 31
0.0
  0
LINE
  5
164
330
161
100
AcDbEntity
  8
0
  6
BYBLOCK
 62
     0
100
AcDbLine
 10
28.4375
 20
8.125
 30
0.0
 11
29.74249999999999
 21
8.125
 31
0.0
  0
LINE
  5
165
330
161
100
AcDbEntity
  8
0
  6
BYBLOCK
 62
     0
100
AcDbLine
 10
29.5625
 20
16.945
 30
0.0
 11
29.5625
 21
12.80499999999999
 31
0.0
  0
LINE
  5
166
330
161
100
AcDbEntity
  8
0
  6
BYBLOCK
 62
     0
100
AcDbLine
 10
29.5625
 20
8.304999999999999
 30
0.0
 11
29.5625
 21
12.445
 31
0.0
  0
SOLID
  5
167
330
161
100
AcDbEntity
  8
0
  6
BYBLOCK
 62
     0
100
AcDbTrace
 10
29.5325
 20
16.945
 30
0.0
 11
29.5925
 21
16.945
 31
0.0
 12
29.5625
 22
17.125
 32
0.0
 13
29.5625
 23
17.125
 33
0.0
  0
SOLID
  5
168
330
161
100
AcDbEntity
  8
0
  6
BYBLOCK
 62
     0
100
AcDbTrace
 10
29.5325
 20
8.304999999999999
 30
0.0
 11
29.5925
 21
8.304999999999999
 31
0.0
 12
29.5625
 22
8.125
 32
0.0
 13
29.5625
 23
8.125
 33
0.0
  0
TEXT
  5
169
330
161
100
AcDbEntity
  8
0
  6
BYBLOCK
 62
     0
100
AcDbText
 10
29.1725
 20
12.535
 30
0.0
 40
0.18
  1
9.0000
 72
     1
 11
29.5625
 21
12.625
 31
0.0
100
AcDbText
 73
     2
  0
POINT
  5
16A
330
161
100
AcDbEntity
  8
DEFPOINTS
  6
BYBLOCK
 62
     0
100
AcDbPoint
 10
28.375
 20
17.125
 30
0.0
  0
POINT
  5
16B
330
161
100
AcDbEntity
  8
DEFPOINTS
  6
BYBLOCK
 62
     0
100
AcDbPoint
 10
28.375
 20
8.125
 30
0.0
  0
POINT
  5
16C
330
161
100
AcDbEntity
  8
DEFPOINTS
  6
BYBLOCK
 62
     0
100
AcDbPoint
 10
29.5625
 20
8.125
 30
0.0
  0
ENDBLK
  5
16D
330
161
100
AcDbEntity
  8
0
100
AcDbBlockEnd
  0
BLOCK
  5
16F
330
16E
100
AcDbEntity
  8
0
100
AcDbBlockBegin
  2
D08
 70
     0
 10
0.0
 20
0.0
 30
0.0
  3
D08
  1

  0
INSERT
  5
170
330
16E
100
AcDbEntity
  8
DAMAN
100
AcDbBlockReference
  2
100CROSS
 10
2.875
 20
-4.437999999999999
 30
0.0
 41
0.4375
 42
0.4375
 43
0.4375
  0
INSERT
  5
171
330
16E
100
AcDbEntity
  8
DAMAN
100
AcDbBlockReference
  2
100CROSS
 10
1.8125
 20
-4.900591
 30
0.0
 41
0.25
 42
0.25
 43
0.25
  0
CIRCLE
  5
172
330
16E
100
AcDbEntity
  8
DAMAN
100
AcDbCircle
 10
1.8125
 20
-4.900591
 30
0.0
 40
0.09845
  0
CIRCLE
  5
173
330
16E
100
AcDbEntity
  8
DAMAN
100
AcDbCircle
 10
3.625
 20
-5.125
 30
0.0
 40
0.2655
  0
INSERT
  5
174
330
16E
100
AcDbEntity
  8
DAMAN
100
AcDbBlockReference
  2
100CROSS
 10
3.625
 20
-5.125
 30
0.0
 41
0.6
 42
0.6
 43
0.6
  0
CIRCLE
  5
175
330
16E
100
AcDbEntity
  8
DAMAN
100
AcDbCircle
 10
2.875
 20
-4.437999999999999
 30
0.0
 40
0.2189999999999999
  0
INSERT
  5
176
330
16E
100
AcDbEntity
  8
DAMAN
100
AcDbBlockReference
  2
100CROSS
 10
0.6875
 20
-3.96875
 30
0.0
 41
1.03
 42
1.03
  0
INSERT
  5
177
330
16E
100
AcDbEntity
  8
DAMAN
100
AcDbBlockReference
  2
100CROSS
 10
1.8125
 20
-0.224409
 30
0.0
 41
0.25
 42
0.25
 43
0.25
  0
CIRCLE
  5
178
330
16E
100
AcDbEntity
  8
DAMAN
100
AcDbCircle
 10
1.8125
 20
-0.224409
 30
0.0
 40
0.09845
  0
INSERT
  5
179
330
16E
100
AcDbEntity
  8
DAMAN
100
AcDbBlockReference
  2
100CROSS
 10
0.6875
 20
-2.09375
 30
0.0
 41
1.03
 42
1.03
  0
CIRCLE
  5
17A
330
16E
100
AcDbEntity
  8
DAMAN
100
AcDbCircle
 10
2.938
 20
-1.155999999999999
 30
0.0
 40
0.453
  0
INSERT
  5
17B
330
16E
100
AcDbEntity
  8
DAMAN
100
AcDbBlockReference
  2
100CROSS
 10
2.9375
 20
-1.15625
 30
0.0
 41
1.03
 42
1.03
  0
CIRCLE
  5
17C
330
16E
100
AcDbEntity
  8
DAMAN
100
AcDbCircle
 10
3.625
 20
-2.09375
 30
0.0
 40
0.2655
  0
CIRCLE
  5
17D
330
16E
100
AcDbEntity
  8
DAMAN
100
AcDbCircle
 10
2.938
 20
-3.031
 30
0.0
 40
0.453
  0
INSERT
  5
17E
330
16E
100
AcDbEntity
  8
DAMAN
100
AcDbBlockReference
  2
100CROSS
 10
2.9375
 20
-3.03125
 30
0.0
 41
1.03
 42
1.03
  0
INSERT
  5
17F
330
16E
100
AcDbEntity
  8
DAMAN
100
AcDbBlockReference
  2
100CROSS
 10
3.625
 20
-2.09375
 30
0.0
 41
0.6
 42
0.6
 43
0.6
  0
CIRCLE
  5
180
330
16E
100
AcDbEntity
  8
DAMAN
100
AcDbCircle
 10
3.811999999999999
 20
-3.718249999999999
 30
0.0
 40
0.1405
  0
INSERT
  5
181
330
16E
100
AcDbEntity
  8
DAMAN
100
AcDbBlockReference
  2
100CROSS
 10
3.811999999999999
 20
-3.718249999999999
 30
0.0
 41
0.25
 42
0.25
  0
CIRCLE
  5
182
330
16E
100
AcDbEntity
  8
DAMAN
100
AcDbCircle
 10
3.625
 20
0.0
 30
0.0
 40
0.2655
  0
INSERT
  5
183
330
16E
100
AcDbEntity
  8
DAMAN
100
AcDbBlockReference
  2
100CROSS
 10
3.625
 20
0.0
 30
0.0
 41
0.6
 42
0.6
 43
0.6
  0
CIRCLE
  5
184
330
16E
100
AcDbEntity
  8
DAMAN
100
AcDbCircle
 10
0.6879999999999999
 20
-3.9685
 30
0.0
 40
0.453
  0
INSERT
  5
185
330
16E
100
AcDbEntity
  8
DAMAN
100
AcDbBlockReference
  2
100CROSS
 10
0.0
 20
-5.125
 30
0.0
 41
0.6
 42
0.6
 43
0.6
  0
CIRCLE
  5
186
330
16E
100
AcDbEntity
  8
DAMAN
100
AcDbCircle
 10
0.0
 20
-5.125
 30
0.0
 40
0.2655
  0
CIRCLE
  5
187
330
16E
100
AcDbEntity
  8
DAMAN
100
AcDbCircle
 10
0.6879999999999999
 20
-2.0935
 30
0.0
 40
0.453
  0
INSERT
  5
188
330
16E
100
AcDbEntity
  8
DAMAN
100
AcDbBlockReference
  2
100CROSS
 10
0.0
 20
-3.03125
 30
0.0
 41
0.6
 42
0.6
 43
0.6
  0
CIRCLE
  5
189
330
16E
100
AcDbEntity
  8
DAMAN
100
AcDbCircle
 10
0.0
 20
-3.03125
 30
0.0
 40
0.2655
  0
INSERT
  5
18A
330
16E
100
AcDbEntity
  8
DAMAN
100
AcDbBlockReference
  2
100CROSS
 10
0.0
 20
0.0
 30
0.0
 41
0.6
 42
0.6
 43
0.6
  0
INSERT
  5
18B
330
16E
100
AcDbEntity
  8
DAMAN
100
AcDbBlockReference
  2
100CROSS
 10
0.0
 20
-1.15625
 30
0.0
 41
0.25
 42
0.25
  0
CIRCLE
  5
18C
330
16E
100
AcDbEntity
  8
DAMAN
100
AcDbCircle
 10
0.0
 20
-1.15625
 30
0.0
 40
0.1405
  0
CIRCLE
  5
18D
330
16E
100
AcDbEntity
  8
DAMAN
100
AcDbCircle
 10
0.0
 20
0.0
 30
0.0
 40
0.2655
  0
INSERT
  5
18E
330
16E
100
AcDbEntity
  8
DAMAN
100
AcDbBlockReference
  2
100CROSS
 10
0.75
 20
-0.6879999999999999
 30
0.0
 41
0.4375
 42
0.4375
 43
0.4375
  0
CIRCLE
  5
18F
330
16E
100
AcDbEntity
  8
DAMAN
100
AcDbCircle
 10
0.75
 20
-0.6879999999999999
 30
0.0
 40
0.2189999999999999
  0
ENDBLK
  5
190
330
16E
100
AcDbEntity
  8
0
100
AcDbBlockEnd
  0
ENDSEC
  0
SECTION
  2
ENTITIES
  0
LWPOLYLINE
  5
191
330
1E
100
AcDbEntity
  8
DAMAN
100
AcDbPolyline
 90
        4
 70
     1
 43
0.0
 10
3.875
 20
8.125
 10
3.875
 20
17.125
 10
11.875
 20
17.125
 10
11.875
 20
8.125
  0
LWPOLYLINE
  5
197
330
1E
100
AcDbEntity
  8
DAMAN
100
AcDbPolyline
 90
        4
 70
     1
 43
0.0
 10
14.625
 20
8.125
 10
14.625
 20
17.125
 10
17.625
 20
17.125
 10
17.625
 20
8.125
  0
CIRCLE
  5
19D
330
1E
100
AcDbEntity
  8
DAMAN
100
AcDbCircle
 10
11.0
 20
8.875
 30
0.0
 40
0.59375
  0
CIRCLE
  5
19E
330
1E
100
AcDbEntity
  8
DAMAN
100
AcDbCircle
 10
11.0
 20
13.375
 30
0.0
 40
0.59375
  0
CIRCLE
  5
19F
330
1E
100
AcDbEntity
  8
DAMAN
100
AcDbCircle
 10
11.0
 20
16.375
 30
0.0
 40
0.59375
  0
CIRCLE
  5
1A0
330
1E
100
AcDbEntity
  8
DAMAN
100
AcDbCircle
 10
4.75
 20
16.375
 30
0.0
 40
0.59375
  0
CIRCLE
  5
1A1
330
1E
100
AcDbEntity
  8
DAMAN
100
AcDbCircle
 10
4.75
 20
11.875
 30
0.0
 40
0.59375
  0
CIRCLE
  5
1A2
330
1E
100
AcDbEntity
  8
DAMAN
100
AcDbCircle
 10
4.75
 20
8.875
 30
0.0
 40
0.59375
  0
CIRCLE
  5
1A3
330
1E
100
AcDbEntity
  8
DAMAN
100
AcDbCircle
 10
4.75
 20
8.875
 30
0.0
 40
0.390625
  0
INSERT
  5
1A4
330
1E
100
AcDbEntity
  8
DAMAN
100
AcDbBlockReference
  2
100CROSS
 10
4.75
 20
8.875
 30
0.0
  0
INSERT
  5
1A5
330
1E
100
AcDbEntity
  8
DAMAN
100
AcDbBlockReference
  2
100CROSS
 10
4.75
 20
11.875
 30
0.0
  0
CIRCLE
  5
1A6
330
1E
100
AcDbEntity
  8
DAMAN
100
AcDbCircle
 10
4.75
 20
11.875
 30
0.0
 40
0.390625
  0
INSERT
  5
1A7
330
1E
100
AcDbEntity
  8
DAMAN
100
AcDbBlockReference
  2
100CROSS
 10
4.75
 20
16.375
 30
0.0
  0
CIRCLE
  5
1A8
330
1E
100
AcDbEntity
  8
DAMAN
100
AcDbCircle
 10
4.75
 20
16.375
 30
0.0
 40
0.390625
  0
INSERT
  5
1A9
330
1E
100
AcDbEntity
  8
DAMAN
100
AcDbBlockReference
  2
100CROSS
 10
11.0
 20
16.375
 30
0.0
  0
CIRCLE
  5
1AA
330
1E
100
AcDbEntity
  8
DAMAN
100
AcDbCircle
 10
11.0
 20
16.375
 30
0.0
 40
0.390625
  0
INSERT
  5
1AB
330
1E
100
AcDbEntity
  8
DAMAN
100
AcDbBlockReference
  2
100CROSS
 10
11.0
 20
13.375
 30
0.0
  0
CIRCLE
  5
1AC
330
1E
100
AcDbEntity
  8
DAMAN
100
AcDbCircle
 10
11.0
 20
13.375
 30
0.0
 40
0.390625
  0
INSERT
  5
1AD
330
1E
100
AcDbEntity
  8
DAMAN
100
AcDbBlockReference
  2
100CROSS
 10
11.0
 20
8.875
 30
0.0
  0
CIRCLE
  5
1AE
330
1E
100
AcDbEntity
  8
DAMAN
100
AcDbCircle
 10
11.0
 20
8.875
 30
0.0
 40
0.390625
  0
LWPOLYLINE
  5
1AF
330
1E
100
AcDbEntity
  8
DAMAN
100
AcDbPolyline
 90
        4
 70
     1
 43
0.0
 10
1.125
 20
8.125
 10
1.125
 20
17.125
 10
-1.875
 20
17.125
 10
-1.875
 20
8.125
  0
LINE
  5
1B5
330
1E
100
AcDbEntity
  8
DAMAN
100
AcDbLine
 10
3.875
 20
2.90625
 30
0.0
 11
11.875
 21
2.90625
 31
0.0
  0
LINE
  5
1B6
330
1E
100
AcDbEntity
  8
DAMAN
100
AcDbLine
 10
11.875
 20
2.90625
 30
0.0
 11
11.875
 21
5.90625
 31
0.0
  0
LINE
  5
1B7
330
1E
100
AcDbEntity
  8
DAMAN
100
AcDbLine
 10
11.875
 20
5.90625
 30
0.0
 11
3.875
 21
5.90625
 31
0.0
  0
LINE
  5
1B8
330
1E
100
AcDbEntity
  8
DAMAN
100
AcDbLine
 10
3.875
 20
5.90625
 30
0.0
 11
3.875
 21
2.90625
 31
0.0
  0
LINE
  5
1B9
330
1E
100
AcDbEntity
  8
DAMAN
100
AcDbLine
 10
3.875
 20
22.34375
 30
0.0
 11
11.875
 21
22.34375
 31
0.0
  0
LINE
  5
1BA
330
1E
100
AcDbEntity
  8
DAMAN
100
AcDbLine
 10
11.875
 20
19.34375
 30
0.0
 11
3.875
 21
19.34375
 31
0.0
  0
LINE
  5
1BB
330
1E
100
AcDbEntity
  8
DAMAN
100
AcDbLine
 10
3.875
 20
19.34375
 30
0.0
 11
3.875
 21
22.34375
 31
0.0
  0
LINE
  5
1BC
330
1E
100
AcDbEntity
  8
DAMAN
100
AcDbLine
 10
11.875
 20
22.34375
 30
0.0
 11
11.875
 21
19.34375
 31
0.0
  0
TEXT
  5
1BD
330
1E
100
AcDbEntity
  8
DAMAN
100
AcDbText
 10
5.21875
 20
4.78125
 30
0.0
 40
0.188
  1
DAMAN ****
100
AcDbText
  0
INSERT
  5
1C0
330
1E
100
AcDbEntity
  8
DAMAN
100
AcDbBlockReference
  2
100CROSS
 10
8.812000000000001
 20
10.46799999999999
 30
0.0
 41
0.4375
 42
0.4375
 43
0.4375
  0
CIRCLE
  5
1C3
330
1E
100
AcDbEntity
  8
DAMAN
100
AcDbCircle
 10
9.562000000000001
 20
9.780999999999998
 30
0.0
 40
0.2655
  0
INSERT
  5
1C4
330
1E
100
AcDbEntity
  8
DAMAN
100
AcDbBlockReference
  2
100CROSS
 10
9.562000000000001
 20
9.780999999999998
 30
0.0
 41
0.5999999999999997
 42
0.5999999999999997
 43
0.6
  0
CIRCLE
  5
1C5
330
1E
100
AcDbEntity
  8
DAMAN
100
AcDbCircle
 10
8.812000000000001
 20
10.46799999999999
 30
0.0
 40
0.2189999999999999
  0
INSERT
  5
1C6
330
1E
100
AcDbEntity
  8
DAMAN
100
AcDbBlockReference
  2
100CROSS
 10
6.6245
 20
10.93724999999999
 30
0.0
 41
1.03
 42
1.029999999999999
  0
INSERT
  5
1C9
330
1E
100
AcDbEntity
  8
DAMAN
100
AcDbBlockReference
  2
100CROSS
 10
6.6245
 20
12.81225
 30
0.0
 41
1.03
 42
1.029999999999999
  0
CIRCLE
  5
1CA
330
1E
100
AcDbEntity
  8
DAMAN
100
AcDbCircle
 10
8.875
 20
13.75
 30
0.0
 40
0.453
  0
INSERT
  5
1CB
330
1E
100
AcDbEntity
  8
DAMAN
100
AcDbBlockReference
  2
100CROSS
 10
8.874500000000001
 20
13.74975
 30
0.0
 41
1.03
 42
1.029999999999999
  0
CIRCLE
  5
1CC
330
1E
100
AcDbEntity
  8
DAMAN
100
AcDbCircle
 10
9.562000000000001
 20
12.81225
 30
0.0
 40
0.2655
  0
CIRCLE
  5
1CD
330
1E
100
AcDbEntity
  8
DAMAN
100
AcDbCircle
 10
8.875
 20
11.87499999999999
 30
0.0
 40
0.453
  0
INSERT
  5
1CE
330
1E
100
AcDbEntity
  8
DAMAN
100
AcDbBlockReference
  2
100CROSS
 10
8.874500000000001
 20
11.87474999999999
 30
0.0
 41
1.03
 42
1.029999999999999
  0
INSERT
  5
1CF
330
1E
100
AcDbEntity
  8
DAMAN
100
AcDbBlockReference
  2
100CROSS
 10
9.562000000000001
 20
12.81225
 30
0.0
 41
0.5999999999999997
 42
0.5999999999999997
 43
0.6
  0
CIRCLE
  5
1D0
330
1E
100
AcDbEntity
  8
DAMAN
100
AcDbCircle
 10
9.749
 20
11.18775
 30
0.0
 40
0.1405
  0
INSERT
  5
1D1
330
1E
100
AcDbEntity
  8
DAMAN
100
AcDbBlockReference
  2
100CROSS
 10
9.749
 20
11.18775
 30
0.0
 41
0.25
 42
0.25
  0
CIRCLE
  5
1D2
330
1E
100
AcDbEntity
  8
DAMAN
100
AcDbCircle
 10
9.562000000000001
 20
14.90599999999999
 30
0.0
 40
0.2655
  0
INSERT
  5
1D3
330
1E
100
AcDbEntity
  8
DAMAN
100
AcDbBlockReference
  2
100CROSS
 10
9.562000000000001
 20
14.90599999999999
 30
0.0
 41
0.5999999999999997
 42
0.5999999999999997
 43
0.6
  0
CIRCLE
  5
1D4
330
1E
100
AcDbEntity
  8
DAMAN
100
AcDbCircle
 10
6.625
 20
10.93749999999999
 30
0.0
 40
0.453
  0
INSERT
  5
1D5
330
1E
100
AcDbEntity
  8
DAMAN
100
AcDbBlockReference
  2
100CROSS
 10
5.937
 20
9.780999999999998
 30
0.0
 41
0.5999999999999997
 42
0.5999999999999997
 43
0.6
  0
CIRCLE
  5
1D6
330
1E
100
AcDbEntity
  8
DAMAN
100
AcDbCircle
 10
5.937
 20
9.780999999999998
 30
0.0
 40
0.2655
  0
CIRCLE
  5
1D7
330
1E
100
AcDbEntity
  8
DAMAN
100
AcDbCircle
 10
6.625
 20
12.8125
 30
0.0
 40
0.453
  0
INSERT
  5
1D8
330
1E
100
AcDbEntity
  8
DAMAN
100
AcDbBlockReference
  2
100CROSS
 10
5.937
 20
11.87474999999999
 30
0.0
 41
0.5999999999999997
 42
0.5999999999999997
 43
0.6
  0
CIRCLE
  5
1D9
330
1E
100
AcDbEntity
  8
DAMAN
100
AcDbCircle
 10
5.937
 20
11.87474999999999
 30
0.0
 40
0.2655
  0
INSERT
  5
1DA
330
1E
100
AcDbEntity
  8
DAMAN
100
AcDbBlockReference
  2
100CROSS
 10
5.937
 20
14.90599999999999
 30
0.0
 41
0.5999999999999997
 42
0.5999999999999997
 43
0.6
  0
INSERT
  5
1DB
330
1E
100
AcDbEntity
  8
DAMAN
100
AcDbBlockReference
  2
100CROSS
 10
5.937
 20
13.74975
 30
0.0
 41
0.25
 42
0.25
  0
CIRCLE
  5
1DC
330
1E
100
AcDbEntity
  8
DAMAN
100
AcDbCircle
 10
5.937
 20
13.74975
 30
0.0
 40
0.1405
  0
CIRCLE
  5
1DD
330
1E
100
AcDbEntity
  8
DAMAN
100
AcDbCircle
 10
5.937
 20
14.90599999999999
 30
0.0
 40
0.2655
  0
INSERT
  5
1DE
330
1E
100
AcDbEntity
  8
DAMAN
100
AcDbBlockReference
  2
100CROSS
 10
6.687
 20
14.21799999999999
 30
0.0
 41
0.4375
 42
0.4375
 43
0.4375
  0
CIRCLE
  5
1DF
330
1E
100
AcDbEntity
  8
DAMAN
100
AcDbCircle
 10
6.687
 20
14.21799999999999
 30
0.0
 40
0.2189999999999999
  0
ENDSEC
  0
SECTION
  2
OBJECTS
  0
DICTIONARY
  5
C
330
0
100
AcDbDictionary
  3
ACAD_GROUP
350
D
  3
ACAD_LAYOUT
350
19
  3
ACAD_MLINESTYLE
350
16
  3
ACAD_PLOTSETTINGS
350
18
  3
ACAD_PLOTSTYLENAME
350
E
  3
ACDBHEADERROUNDTRIPXREC
350
206
  0
DICTIONARY
  5
228
330
1E
100
AcDbDictionary
280
     1
  3
ACAD_LAYOUTSELFREF
360
229
  0
DICTIONARY
  5
226
330
1A
100
AcDbDictionary
280
     1
  3
ACAD_LAYOUTSELFREF
360
227
  0
DICTIONARY
  5
D
102
{ACAD_REACTORS
330
C
102
}
330
C
100
AcDbDictionary
  0
DICTIONARY
  5
19
102
{ACAD_REACTORS
330
C
102
}
330
C
100
AcDbDictionary
  0
DICTIONARY
  5
16
102
{ACAD_REACTORS
330
C
102
}
330
C
100
AcDbDictionary
  3
STANDARD
350
17
  0
DICTIONARY
  5
18
102
{ACAD_REACTORS
330
C
102
}
330
C
100
AcDbDictionary
  0
ACDBDICTIONARYWDFLT
  5
E
102
{ACAD_REACTORS
330
C
102
}
330
C
100
AcDbDictionary
281
     1
  3
Normal
350
F
100
AcDbDictionaryWithDefault
340
F
  0
DICTIONARY
  5
206
102
{ACAD_REACTORS
330
C
102
}
330
C
100
AcDbDictionary
  3
CEPSNTYPE
350
210
  3
FINGERPRINTGUID
350
211
  3
HYPERLINKBASE
350
209
  3
INSUNITS
350
20F
  3
LAYOUTDICT
350
20B
  3
LWETCUNION
350
20E
  3
PLOTSETDICT
350
20C
  3
PLOTSTYLNAMDICT
350
20D
  3
PSVPSCALE
350
213
  3
PUCSBASE
350
216
  3
PUCSORGBACK
350
21C
  3
PUCSORGBOTTOM
350
218
  3
PUCSORGFRONT
350
21B
  3
PUCSORGLEFT
350
219
  3
PUCSORGRIGHT
350
21A
  3
PUCSORGTOP
350
217
  3
PUCSORTHOREF
350
214
  3
PUCSORTHOVIEW
350
215
  3
STYLESHEET
350
20A
  3
TSTACKALIGN
350
207
  3
TSTACKSIZE
350
208
  3
UCSBASE
350
21F
  3
UCSORGBACK
350
225
  3
UCSORGBOTTOM
350
221
  3
UCSORGFRONT
350
224
  3
UCSORGLEFT
350
222
  3
UCSORGRIGHT
350
223
  3
UCSORGTOP
350
220
  3
UCSORTHOREF
350
21D
  3
UCSORTHOVIEW
350
21E
  3
VERSIONGUID
350
212
  0
XRECORD
  5
229
102
{ACAD_REACTORS
330
228
102
}
330
228
100
AcDbXrecord
340
1E
  0
XRECORD
  5
227
102
{ACAD_REACTORS
330
226
102
}
330
226
100
AcDbXrecord
340
1A
  0
MLINESTYLE
  5
17
102
{ACAD_REACTORS
330
16
102
}
330
16
100
AcDbMlineStyle
  2
STANDARD
 70
     0
  3

 62
   256
 51
90.0
 52
90.0
 71
     2
 49
0.5
 62
   256
  6
BYLAYER
 49
-0.5
 62
   256
  6
BYLAYER
  0
ACDBPLACEHOLDER
  5
F
102
{ACAD_REACTORS
330
E
102
}
330
E
100
AcDbPlaceHolder
280
     0
  0
XRECORD
  5
210
102
{ACAD_REACTORS
330
206
102
}
330
206
100
AcDbXrecord
 90
        0
  0
XRECORD
  5
211
102
{ACAD_REACTORS
330
206
102
}
330
206
100
AcDbXrecord
  1
{0F78DF70-94E6-4D7D-9024-10649DF40665}
  0
XRECORD
  5
209
102
{ACAD_REACTORS
330
206
102
}
330
206
100
AcDbXrecord
  1

  0
XRECORD
  5
20F
102
{ACAD_REACTORS
330
206
102
}
330
206
100
AcDbXrecord
 90
        0
  0
XRECORD
  5
20B
102
{ACAD_REACTORS
330
206
102
}
330
206
100
AcDbXrecord
340
19
  0
XRECORD
  5
20E
102
{ACAD_REACTORS
330
206
102
}
330
206
100
AcDbXrecord
 90
    10781
  0
XRECORD
  5
20C
102
{ACAD_REACTORS
330
206
102
}
330
206
100
AcDbXrecord
340
18
  0
XRECORD
  5
20D
102
{ACAD_REACTORS
330
206
102
}
330
206
100
AcDbXrecord
340
E
  0
XRECORD
  5
213
102
{ACAD_REACTORS
330
206
102
}
330
206
100
AcDbXrecord
 40
0.0
  0
XRECORD
  5
216
102
{ACAD_REACTORS
330
206
102
}
330
206
100
AcDbXrecord
340
0
  0
XRECORD
  5
21C
102
{ACAD_REACTORS
330
206
102
}
330
206
100
AcDbXrecord
 10
0.0
 20
0.0
 30
0.0
  0
XRECORD
  5
218
102
{ACAD_REACTORS
330
206
102
}
330
206
100
AcDbXrecord
 10
0.0
 20
0.0
 30
0.0
  0
XRECORD
  5
21B
102
{ACAD_REACTORS
330
206
102
}
330
206
100
AcDbXrecord
 10
0.0
 20
0.0
 30
0.0
  0
XRECORD
  5
219
102
{ACAD_REACTORS
330
206
102
}
330
206
100
AcDbXrecord
 10
0.0
 20
0.0
 30
0.0
  0
XRECORD
  5
21A
102
{ACAD_REACTORS
330
206
102
}
330
206
100
AcDbXrecord
 10
0.0
 20
0.0
 30
0.0
  0
XRECORD
  5
217
102
{ACAD_REACTORS
330
206
102
}
330
206
100
AcDbXrecord
 10
0.0
 20
0.0
 30
0.0
  0
XRECORD
  5
214
102
{ACAD_REACTORS
330
206
102
}
330
206
100
AcDbXrecord
340
0
  0
XRECORD
  5
215
102
{ACAD_REACTORS
330
206
102
}
330
206
100
AcDbXrecord
 70
     0
  0
XRECORD
  5
20A
102
{ACAD_REACTORS
330
206
102
}
330
206
100
AcDbXrecord
  1

  0
XRECORD
  5
207
102
{ACAD_REACTORS
330
206
102
}
330
206
100
AcDbXrecord
 90
        1
  0
XRECORD
  5
208
102
{ACAD_REACTORS
330
206
102
}
330
206
100
AcDbXrecord
 90
       70
  0
XRECORD
  5
21F
102
{ACAD_REACTORS
330
206
102
}
330
206
100
AcDbXrecord
340
0
  0
XRECORD
  5
225
102
{ACAD_REACTORS
330
206
102
}
330
206
100
AcDbXrecord
 10
0.0
 20
0.0
 30
0.0
  0
XRECORD
  5
221
102
{ACAD_REACTORS
330
206
102
}
330
206
100
AcDbXrecord
 10
0.0
 20
0.0
 30
0.0
  0
XRECORD
  5
224
102
{ACAD_REACTORS
330
206
102
}
330
206
100
AcDbXrecord
 10
0.0
 20
0.0
 30
0.0
  0
XRECORD
  5
222
102
{ACAD_REACTORS
330
206
102
}
330
206
100
AcDbXrecord
 10
0.0
 20
0.0
 30
0.0
  0
XRECORD
  5
223
102
{ACAD_REACTORS
330
206
102
}
330
206
100
AcDbXrecord
 10
0.0
 20
0.0
 30
0.0
  0
XRECORD
  5
220
102
{ACAD_REACTORS
330
206
102
}
330
206
100
AcDbXrecord
 10
0.0
 20
0.0
 30
0.0
  0
XRECORD
  5
21D
102
{ACAD_REACTORS
330
206
102
}
330
206
100
AcDbXrecord
340
0
  0
XRECORD
  5
21E
102
{ACAD_REACTORS
330
206
102
}
330
206
100
AcDbXrecord
 70
     0
  0
XRECORD
  5
212
102
{ACAD_REACTORS
330
206
102
}
330
206
100
AcDbXrecord
  1
{BB66CCCA-F452-401F-B4D3-02FFD2B46340}
  0
ENDSEC
  0
EOF
