  0
SECTION
  2
HEADER
  9
$ACADVER
  1
AC1009
  9
$INSBASE
 10
0.0
 20
0.0
 30
0.0
  9
$EXTMIN
 10
-1.875
 20
1.0
 30
0.0
  9
$EXTMAX
 10
17.625
 20
22.34375
 30
0.0
  9
$LIMMIN
 10
0.0
 20
0.0
  9
$LIMMAX
 10
12.0
 20
9.0
  9
$ORTHOMODE
 70
     1
  9
$REGENMODE
 70
     1
  9
$FILLMODE
 70
     1
  9
$QTEXTMODE
 70
     0
  9
$MIRRTEXT
 70
     1
  9
$DRAGMODE
 70
     2
  9
$LTSCALE
 40
1.0
  9
$OSMODE
 70
     0
  9
$ATTMODE
 70
     1
  9
$TEXTSIZE
 40
0.188
  9
$TRACEWID
 40
0.05
  9
$TEXTSTYLE
  7
STANDARD
  9
$CLAYER
  8
DAMAN
  9
$CELTYPE
  6
BYLAYER
  9
$CECOLOR
 62
   256
  9
$DIMSCALE
 40
1.0
  9
$DIMASZ
 40
0.18
  9
$DIMEXO
 40
0.0625
  9
$DIMDLI
 40
0.38
  9
$DIMRND
 40
0.0
  9
$DIMDLE
 40
0.0
  9
$DIMEXE
 40
0.18
  9
$DIMTP
 40
0.0
  9
$DIMTM
 40
0.0
  9
$DIMTXT
 40
0.18
  9
$DIMCEN
 40
0.09
  9
$DIMTSZ
 40
0.0
  9
$DIMTOL
 70
     0
  9
$DIMLIM
 70
     0
  9
$DIMTIH
 70
     1
  9
$DIMTOH
 70
     1
  9
$DIMSE1
 70
     0
  9
$DIMSE2
 70
     0
  9
$DIMTAD
 70
     0
  9
$DIMZIN
 70
     0
  9
$DIMBLK
  1

  9
$DIMASO
 70
     1
  9
$DIMSHO
 70
     1
  9
$DIMPOST
  1

  9
$DIMAPOST
  1

  9
$DIMALT
 70
     0
  9
$DIMALTD
 70
     2
  9
$DIMALTF
 40
25.4
  9
$DIMLFAC
 40
1.0
  9
$DIMTOFL
 70
     0
  9
$DIMTVP
 40
0.0
  9
$DIMTIX
 70
     0
  9
$DIMSOXD
 70
     0
  9
$DIMSAH
 70
     0
  9
$DIMBLK1
  1

  9
$DIMBLK2
  1

  9
$DIMSTYLE
  2
*UNNAMED
  9
$DIMCLRD
 70
     0
  9
$DIMCLRE
 70
     0
  9
$DIMCLRT
 70
     0
  9
$DIMTFAC
 40
1.0
  9
$DIMGAP
 40
0.09
  9
$LUNITS
 70
     2
  9
$LUPREC
 70
     4
  9
$SKETCHINC
 40
0.1
  9
$FILLETRAD
 40
0.0
  9
$AUNITS
 70
     0
  9
$AUPREC
 70
     0
  9
$MENU
  1
tom
  9
$ELEVATION
 40
0.0
  9
$PELEVATION
 40
0.0
  9
$THICKNESS
 40
0.0
  9
$LIMCHECK
 70
     0
  9
$BLIPMODE
 70
     1
  9
$CHAMFERA
 40
0.0
  9
$CHAMFERB
 40
0.0
  9
$SKPOLY
 70
     0
  9
$TDCREATE
 40
2449759.327303542
  9
$TDUPDATE
 40
2449759.327303542
  9
$TDINDWG
 40
0.0000000000
  9
$TDUSRTIMER
 40
0.0000000000
  9
$USRTIMER
 70
     1
  9
$ANGBASE
 50
0.0
  9
$ANGDIR
 70
     0
  9
$PDMODE
 70
     0
  9
$PDSIZE
 40
0.0
  9
$PLINEWID
 40
0.0
  9
$COORDS
 70
     1
  9
$SPLFRAME
 70
     0
  9
$SPLINETYPE
 70
     6
  9
$SPLINESEGS
 70
     8
  9
$ATTDIA
 70
     0
  9
$ATTREQ
 70
     1
  9
$HANDLING
 70
     0
  9
$HANDSEED
  5
0
  9
$SURFTAB1
 70
     6
  9
$SURFTAB2
 70
     6
  9
$SURFTYPE
 70
     6
  9
$SURFU
 70
     6
  9
$SURFV
 70
     6
  9
$UCSNAME
  2

  9
$UCSORG
 10
0.0
 20
0.0
 30
0.0
  9
$UCSXDIR
 10
1.0
 20
0.0
 30
0.0
  9
$UCSYDIR
 10
0.0
 20
1.0
 30
0.0
  9
$PUCSNAME
  2

  9
$PUCSORG
 10
0.0
 20
0.0
 30
0.0
  9
$PUCSXDIR
 10
1.0
 20
0.0
 30
0.0
  9
$PUCSYDIR
 10
0.0
 20
1.0
 30
0.0
  9
$USERI1
 70
     0
  9
$USERI2
 70
     0
  9
$USERI3
 70
     0
  9
$USERI4
 70
     0
  9
$USERI5
 70
     0
  9
$USERR1
 40
0.0
  9
$USERR2
 40
0.0
  9
$USERR3
 40
0.0
  9
$USERR4
 40
0.0
  9
$USERR5
 40
0.0
  9
$WORLDVIEW
 70
     1
  9
$SHADEDGE
 70
     3
  9
$SHADEDIF
 70
    70
  9
$TILEMODE
 70
     1
  9
$MAXACTVP
 70
    16
  9
$PINSBASE
 10
0.0
 20
0.0
 30
0.0
  9
$PLIMCHECK
 70
     0
  9
$PEXTMIN
 10
1.000000E+20
 20
1.000000E+20
 30
1.000000E+20
  9
$PEXTMAX
 10
-1.000000E+20
 20
-1.000000E+20
 30
-1.000000E+20
  9
$PLIMMIN
 10
0.0
 20
0.0
  9
$PLIMMAX
 10
12.0
 20
9.0
  9
$UNITMODE
 70
     0
  9
$VISRETAIN
 70
     0
  9
$PLINEGEN
 70
     0
  9
$PSLTSCALE
 70
     1
  9
$TREEDEPTH
 70
  3020
  9
$DWGCODEPAGE
  3
ascii
  0
ENDSEC
  0
SECTION
  2
TABLES
  0
TABLE
  2
VPORT
 70
     2
  0
VPORT
  2
*ACTIVE
 70
     0
 10
0.0
 20
0.0
 11
1.0
 21
1.0
 12
8.0625
 22
12.5625
 13
0.0
 23
0.0
 14
0.03125
 24
0.03125
 15
0.0
 25
0.0
 16
0.0
 26
0.0
 36
1.0
 17
0.0
 27
0.0
 37
0.0
 40
23.15625
 41
1.365662
 42
50.0
 43
0.0
 44
0.0
 50
0.0
 51
0.0
 71
     0
 72
   100
 73
     1
 74
     1
 75
     1
 76
     0
 77
     0
 78
     0
  0
ENDTAB
  0
TABLE
  2
LTYPE
 70
     3
  0
LTYPE
  2
CONTINUOUS
 70
    64
  3
Solid line
 72
    65
 73
     0
 40
0.0
  0
LTYPE
  2
HIDDEN
 70
    64
  3
_ _ _ _ _ _ _ _ _ _ _ _ _ _ _ _ _ _ _ _ _ _ _
 72
    65
 73
     2
 40
0.375
 49
0.25
 49
-0.125
  0
LTYPE
  2
CENTER
 70
    64
  3
____ _ ____ _ ____ _ ____ _ ____ _ ____ _ ____
 72
    65
 73
     4
 40
2.0
 49
1.25
 49
-0.25
 49
0.25
 49
-0.25
  0
ENDTAB
  0
TABLE
  2
LAYER
 70
    10
  0
LAYER
  2
0
 70
     0
 62
     7
  6
CONTINUOUS
  0
LAYER
  2
DAMAN
 70
     0
 62
     5
  6
CONTINUOUS
  0
LAYER
  2
BORDER
 70
    64
 62
     7
  6
CONTINUOUS
  0
LAYER
  2
CSOLID
 70
    64
 62
     3
  6
CONTINUOUS
  0
LAYER
  2
SOLID
 70
    64
 62
     4
  6
CONTINUOUS
  0
LAYER
  2
CDIM
 70
    64
 62
     2
  6
CONTINUOUS
  0
LAYER
  2
DIM
 70
    64
 62
     5
  6
CONTINUOUS
  0
LAYER
  2
CCENTER
 70
    64
 62
     4
  6
CENTER
  0
LAYER
  2
CHIDDEN
 70
    64
 62
     3
  6
HIDDEN
  0
LAYER
  2
DEFPOINTS
 70
    64
 62
    -7
  6
CONTINUOUS
  0
ENDTAB
  0
TABLE
  2
STYLE
 70
     2
  0
STYLE
  2
STANDARD
 70
    64
 40
0.0
 41
1.0
 50
0.0
 71
     0
 42
0.188
  3
txt
  4

  0
STYLE
  2
STR
 70
    64
 40
0.0
 41
1.0
 50
0.0
 71
     0
 42
0.2
  3
SIMPLEX
  4

  0
ENDTAB
  0
TABLE
  2
VIEW
 70
     0
  0
ENDTAB
  0
TABLE
  2
UCS
 70
     0
  0
ENDTAB
  0
TABLE
  2
APPID
 70
     1
  0
APPID
  2
ACAD
 70
    64
  0
ENDTAB
  0
TABLE
  2
DIMSTYLE
 70
     0
  0
ENDTAB
  0
ENDSEC
  0
SECTION
  2
BLOCKS
  0
BLOCK
  8
0
  2
D07D10
 70
    64
 10
0.0
 20
0.0
 30
0.0
  3
D07D10
  0
POLYLINE
  8
BORDER
 66
     1
 10
0.0
 20
0.0
 30
0.0
 70
     1
  0
VERTEX
  8
BORDER
 10
2.25
 20
6.0
 30
0.0
  0
VERTEX
  8
BORDER
 10
2.25
 20
15.0
 30
0.0
  0
VERTEX
  8
BORDER
 10
10.25
 20
15.0
 30
0.0
  0
VERTEX
  8
BORDER
 10
10.25
 20
6.0
 30
0.0
  0
SEQEND
  8
BORDER
  0
POLYLINE
  8
BORDER
 66
     1
 10
0.0
 20
0.0
 30
0.0
 70
     1
  0
VERTEX
  8
BORDER
 10
13.0
 20
6.0
 30
0.0
  0
VERTEX
  8
BORDER
 10
13.0
 20
15.0
 30
0.0
  0
VERTEX
  8
BORDER
 10
16.0
 20
15.0
 30
0.0
  0
VERTEX
  8
BORDER
 10
16.0
 20
6.0
 30
0.0
  0
SEQEND
  8
BORDER
  0
POLYLINE
  8
BORDER
 66
     1
 10
0.0
 20
0.0
 30
0.0
 70
     1
  0
VERTEX
  8
BORDER
 10
18.75
 20
6.0
 30
0.0
  0
VERTEX
  8
BORDER
 10
18.75
 20
15.0
 30
0.0
  0
VERTEX
  8
BORDER
 10
26.75
 20
15.0
 30
0.0
  0
VERTEX
  8
BORDER
 10
26.75
 20
6.0
 30
0.0
  0
SEQEND
  8
BORDER
  0
INSERT
  8
SOLID
  2
D10I
 10
25.875
 20
14.25
 30
0.0
 41
-1.0
 43
0.0
  0
CIRCLE
  8
CSOLID
 10
9.375
 20
6.75
 30
0.0
 40
0.59375
  0
CIRCLE
  8
CSOLID
 10
9.375
 20
11.25
 30
0.0
 40
0.59375
  0
CIRCLE
  8
CSOLID
 10
9.375
 20
14.25
 30
0.0
 40
0.59375
  0
CIRCLE
  8
CSOLID
 10
3.125
 20
14.25
 30
0.0
 40
0.59375
  0
CIRCLE
  8
CSOLID
 10
3.125
 20
9.75
 30
0.0
 40
0.59375
  0
CIRCLE
  8
CSOLID
 10
3.125
 20
6.75
 30
0.0
 40
0.59375
  0
CIRCLE
  8
CSOLID
 10
3.125
 20
6.75
 30
0.0
 40
0.390625
  0
INSERT
  8
CCENTER
  2
100CROSS
 10
3.125
 20
6.75
 30
0.0
  0
INSERT
  8
CCENTER
  2
100CROSS
 10
3.125
 20
9.75
 30
0.0
  0
CIRCLE
  8
CSOLID
 10
3.125
 20
9.75
 30
0.0
 40
0.390625
  0
INSERT
  8
CCENTER
  2
100CROSS
 10
3.125
 20
14.25
 30
0.0
  0
CIRCLE
  8
CSOLID
 10
3.125
 20
14.25
 30
0.0
 40
0.390625
  0
INSERT
  8
CCENTER
  2
100CROSS
 10
9.375
 20
14.25
 30
0.0
  0
CIRCLE
  8
CSOLID
 10
9.375
 20
14.25
 30
0.0
 40
0.390625
  0
INSERT
  8
CCENTER
  2
100CROSS
 10
9.375
 20
11.25
 30
0.0
  0
CIRCLE
  8
CSOLID
 10
9.375
 20
11.25
 30
0.0
 40
0.390625
  0
INSERT
  8
CCENTER
  2
100CROSS
 10
9.375
 20
6.75
 30
0.0
  0
CIRCLE
  8
CSOLID
 10
9.375
 20
6.75
 30
0.0
 40
0.390625
  0
INSERT
  8
CCENTER
  2
D04C
 10
5.0625
 20
12.125
 30
0.0
  0
DIMENSION
  8
CDIM
  2
*D10
 10
11.65625
 20
10.156
 30
0.0
 11
11.65625
 21
12.578
 31
0.0
 12
-0.75
 22
0.0
 32
0.0
 70
   128
 13
10.25
 23
15.0
 33
0.0
 14
7.2495
 24
10.156
 34
0.0
 50
90.0
  0
DIMENSION
  8
CDIM
  2
*D9
 10
17.3125
 20
9.75
 30
0.0
 11
17.3125
 21
12.375
 31
0.0
 12
0.75
 22
0.0
 32
0.0
 70
   128
 13
18.75
 23
15.0
 33
0.0
 14
21.0
 24
9.75
 34
0.0
 50
90.0
  0
DIMENSION
  8
CDIM
  2
*D5
 10
7.2495
 20
15.9375
 30
0.0
 11
4.74975
 21
15.9375
 31
0.0
 12
-0.75
 22
0.0
 32
0.0
 13
2.25
 23
15.0
 33
0.0
 14
7.2495
 24
11.406
 34
0.0
  0
DIMENSION
  8
CDIM
  2
*D11
 10
16.0
 20
15.9375
 30
0.0
 11
14.576189
 21
15.9375
 31
0.0
 70
   128
 13
13.0
 23
15.0
 33
0.0
 14
16.0
 24
15.0
 34
0.0
  0
DIMENSION
  8
CDIM
  2
*D6
 10
21.0
 20
15.9375
 30
0.0
 11
23.875
 21
15.9375
 31
0.0
 12
0.75
 22
0.0
 32
0.0
 13
26.75
 23
15.0
 33
0.0
 14
21.0
 24
12.625
 34
0.0
  0
DIMENSION
  8
CDIM
  2
*D7
 10
18.75
 20
17.221013
 30
0.0
 11
22.75
 21
17.221013
 31
0.0
 12
0.75
 22
0.0
 32
0.0
 13
26.75
 23
15.0
 33
0.0
 14
18.75
 24
15.0
 34
0.0
  0
DIMENSION
  8
CDIM
  2
*D8
 10
27.9375
 20
6.0
 30
0.0
 11
27.9375
 21
10.5
 31
0.0
 12
0.75
 22
0.0
 32
0.0
 70
   128
 13
26.75
 23
15.0
 33
0.0
 14
26.75
 24
6.0
 34
0.0
 50
90.0
  0
ENDBLK
  8
0
  0
BLOCK
  8
CHIDDEN
  2
D10I
 70
    64
 10
6.375
 20
15.3125
 30
0.0
  0
CIRCLE
  8
CSOLID
 10
6.375
 20
13.6875
 30
0.0
 40
0.125
  0
CIRCLE
  8
CSOLID
 10
12.625
 20
9.5
 30
0.0
 40
0.125
  0
CIRCLE
  8
CSOLID
 10
11.25
 20
13.6875
 30
0.0
 40
0.875
  0
CIRCLE
  8
CSOLID
 10
11.25
 20
10.8125
 30
0.0
 40
0.875
  0
CIRCLE
  8
CSOLID
 10
7.75
 20
12.0625
 30
0.0
 40
0.875
  0
CIRCLE
  8
CSOLID
 10
7.75
 20
9.5
 30
0.0
 40
0.875
  0
CIRCLE
  8
CSOLID
 10
7.5
 20
13.6875
 30
0.0
 40
0.5
  0
INSERT
  8
CCENTER
  2
100CROSS
 10
7.5
 20
13.6875
 30
0.0
 43
0.0
  0
INSERT
  8
CCENTER
  2
100CROSS
 10
10.875
 20
8.6875
 30
0.0
 43
0.0
  0
CIRCLE
  8
CSOLID
 10
10.875
 20
8.6875
 30
0.0
 40
0.5
  0
CIRCLE
  8
CSOLID
 10
12.625
 20
12.3125
 30
0.0
 40
0.390625
  0
CIRCLE
  8
CSOLID
 10
6.375
 20
10.8125
 30
0.0
 40
0.390625
  0
CIRCLE
  8
CSOLID
 10
12.625
 20
15.3125
 30
0.0
 40
0.390625
  0
CIRCLE
  8
CSOLID
 10
12.625
 20
7.8125
 30
0.0
 40
0.390625
  0
CIRCLE
  8
CSOLID
 10
6.375
 20
15.3125
 30
0.0
 40
0.390625
  0
CIRCLE
  8
CSOLID
 10
6.375
 20
7.8125
 30
0.0
 40
0.390625
  0
INSERT
  8
CCENTER
  2
100CROSS
 10
12.625
 20
9.5
 30
0.0
 41
0.281
 42
0.281
 43
0.0
  0
CIRCLE
  8
CSOLID
 10
10.875
 20
8.6875
 30
0.0
 40
0.219
  0
INSERT
  8
CCENTER
  2
100CROSS
 10
7.75
 20
12.0625
 30
0.0
 41
1.312
 42
1.312
 43
0.0
  0
INSERT
  8
CCENTER
  2
100CROSS
 10
7.75
 20
9.5
 30
0.0
 41
1.312
 42
1.312
 43
0.0
  0
INSERT
  8
CCENTER
  2
100CROSS
 10
11.25
 20
10.8125
 30
0.0
 41
1.312
 42
1.312
 43
0.0
  0
INSERT
  8
CCENTER
  2
100CROSS
 10
11.25
 20
13.6875
 30
0.0
 41
1.312
 42
1.312
 43
0.0
  0
CIRCLE
  8
CSOLID
 10
7.5
 20
13.6875
 30
0.0
 40
0.219
  0
INSERT
  8
CCENTER
  2
100CROSS
 10
6.375
 20
13.6875
 30
0.0
 41
0.281
 42
0.281
 43
0.0
  0
INSERT
  8
CCENTER
  2
100CROSS
 10
6.375
 20
10.8125
 30
0.0
 41
0.75
 42
0.75
 43
0.0
  0
INSERT
  8
CCENTER
  2
100CROSS
 10
12.625
 20
12.3125
 30
0.0
 41
0.75
 42
0.75
 43
0.0
  0
INSERT
  8
CCENTER
  2
100CROSS
 10
12.625
 20
7.8125
 30
0.0
 41
0.75
 42
0.75
 43
0.0
  0
INSERT
  8
CCENTER
  2
100CROSS
 10
6.375
 20
7.8125
 30
0.0
 41
0.75
 42
0.75
 43
0.0
  0
INSERT
  8
CCENTER
  2
100CROSS
 10
6.375
 20
15.3125
 30
0.0
 41
0.75
 42
0.75
 43
0.0
  0
INSERT
  8
CCENTER
  2
100CROSS
 10
12.625
 20
15.3125
 30
0.0
 41
0.75
 42
0.75
 43
0.0
  0
CIRCLE
  8
CSOLID
 10
7.75
 20
9.5
 30
0.0
 40
0.625
  0
CIRCLE
  8
CSOLID
 10
7.75
 20
12.0625
 30
0.0
 40
0.625
  0
CIRCLE
  8
CSOLID
 10
11.25
 20
13.6875
 30
0.0
 40
0.625
  0
CIRCLE
  8
CSOLID
 10
11.25
 20
10.8125
 30
0.0
 40
0.625
  0
ENDBLK
  8
CHIDDEN
  0
BLOCK
  8
DIM
  2
100CROSS
 70
    64
 10
15.96875
 20
8.71875
 30
0.0
  0
INSERT
  8
0
  2
050CROSS
 10
15.96875
 20
8.71875
 30
0.0
 43
0.0
  0
ENDBLK
  8
0
  0
BLOCK
  8
0
  2
050CROSS
 70
    64
 10
15.34375
 20
9.125
 30
0.0
  0
LINE
  8
0
 10
15.34375
 20
9.40625
 30
0.0
 11
15.34375
 21
9.90625
 31
0.0
  0
LINE
  8
0
 10
15.34375
 20
9.0
 30
0.0
 11
15.34375
 21
9.25
 31
0.0
  0
LINE
  8
0
 10
15.34375
 20
8.28125
 30
0.0
 11
15.34375
 21
8.84375
 31
0.0
  0
LINE
  8
0
 10
15.59375
 20
9.125
 30
0.0
 11
16.15625
 21
9.125
 31
0.0
  0
LINE
  8
0
 10
15.25
 20
9.125
 30
0.0
 11
15.4375
 21
9.125
 31
0.0
  0
LINE
  8
0
 10
14.53125
 20
9.125
 30
0.0
 11
15.09375
 21
9.125
 31
0.0
  0
ENDBLK
  8
0
  0
BLOCK
  8
CCENTER
  2
D04C
 70
    64
 10
2.0
 20
6.0
 30
0.0
  0
INSERT
  8
CCENTER
  2
100CROSS
 10
4.125
 20
2.985
 30
0.0
 41
0.25
 42
0.25
 43
0.0
  0
CIRCLE
  8
CSOLID
 10
4.125
 20
2.985
 30
0.0
 40
0.125
  0
CIRCLE
  8
CSOLID
 10
2.5
 20
2.532
 30
0.0
 40
0.125
  0
INSERT
  8
CCENTER
  2
100CROSS
 10
2.5
 20
2.532
 30
0.0
 41
0.25
 42
0.25
 43
0.0
  0
INSERT
  8
CCENTER
  2
100CROSS
 10
4.75
 20
2.98425
 30
0.0
 41
0.171
 42
0.171
 43
0.0
  0
CIRCLE
  8
CSOLID
 10
4.75
 20
2.98425
 30
0.0
 40
0.0855
  0
CIRCLE
  8
CSOLID
 10
2.0
 20
5.28125
 30
0.0
 40
0.0855
  0
INSERT
  8
CCENTER
  2
100CROSS
 10
2.0
 20
5.28125
 30
0.0
 41
0.171
 42
0.171
 43
0.0
  0
INSERT
  8
CCENTER
  2
100CROSS
 10
4.187
 20
5.281
 30
0.0
 41
0.688
 42
0.688
 43
0.0
  0
CIRCLE
  8
CSOLID
 10
4.187
 20
5.281
 30
0.0
 40
0.344
  0
CIRCLE
  8
CSOLID
 10
4.187
 20
4.031
 30
0.0
 40
0.344
  0
INSERT
  8
CCENTER
  2
100CROSS
 10
4.187
 20
4.031
 30
0.0
 41
0.688
 42
0.688
 43
0.0
  0
INSERT
  8
CCENTER
  2
100CROSS
 10
2.562
 20
3.406
 30
0.0
 41
0.688
 42
0.688
 43
0.0
  0
CIRCLE
  8
CSOLID
 10
2.562
 20
3.406
 30
0.0
 40
0.344
  0
CIRCLE
  8
CSOLID
 10
2.562
 20
4.656
 30
0.0
 40
0.344
  0
INSERT
  8
CCENTER
  2
100CROSS
 10
2.562
 20
4.656
 30
0.0
 41
0.688
 42
0.688
 43
0.0
  0
INSERT
  8
CCENTER
  2
100CROSS
 10
4.813
 20
4.656
 30
0.0
 41
0.25
 42
0.25
 43
0.0
  0
CIRCLE
  8
CSOLID
 10
4.813
 20
4.656
 30
0.0
 40
0.1055
  0
CIRCLE
  8
CSOLID
 10
1.938
 20
4.031
 30
0.0
 40
0.1055
  0
INSERT
  8
CCENTER
  2
100CROSS
 10
1.938
 20
4.031
 30
0.0
 41
0.25
 42
0.25
 43
0.0
  0
INSERT
  8
CCENTER
  2
100CROSS
 10
4.75
 20
2.0
 30
0.0
 41
0.375
 42
0.375
 43
0.0
  0
CIRCLE
  8
CSOLID
 10
4.75
 20
2.0
 30
0.0
 40
0.15625
  0
INSERT
  8
CCENTER
  2
100CROSS
 10
4.75
 20
6.0
 30
0.0
 41
0.375
 42
0.375
 43
0.0
  0
CIRCLE
  8
CSOLID
 10
4.75
 20
6.0
 30
0.0
 40
0.15625
  0
INSERT
  8
CCENTER
  2
100CROSS
 10
2.0
 20
2.0
 30
0.0
 41
0.375
 42
0.375
 43
0.0
  0
CIRCLE
  8
CSOLID
 10
2.0
 20
2.0
 30
0.0
 40
0.15625
  0
CIRCLE
  8
CSOLID
 10
2.0
 20
6.0
 30
0.0
 40
0.15625
  0
INSERT
  8
CCENTER
  2
100CROSS
 10
2.0
 20
6.0
 30
0.0
 41
0.375
 42
0.375
 43
0.0
  0
CIRCLE
  8
CHIDDEN
 10
2.0
 20
6.0
 30
0.0
 40
0.1875
  0
CIRCLE
  8
CHIDDEN
 10
2.0
 20
2.0
 30
0.0
 40
0.1875
  0
CIRCLE
  8
CHIDDEN
 10
4.75
 20
6.0
 30
0.0
 40
0.1875
  0
CIRCLE
  8
CHIDDEN
 10
4.75
 20
2.0
 30
0.0
 40
0.1875
  0
CIRCLE
  8
CHIDDEN
 10
1.9375
 20
4.03125
 30
0.0
 40
0.125
  0
CIRCLE
  8
CHIDDEN
 10
4.8125
 20
4.65625
 30
0.0
 40
0.125
  0
ENDBLK
  8
CCENTER
  0
BLOCK
  8
CDIM
  2
*D5
 70
    65
 10
0.0
 20
0.0
 30
0.0
  0
LINE
  8
0
  6
BYBLOCK
 62
     0
 10
3.0
 20
15.213919
 30
0.0
 11
3.0
 21
16.365338
 31
0.0
  0
LINE
  8
0
  6
BYBLOCK
 62
     0
 10
7.9995
 20
11.619919
 30
0.0
 11
7.9995
 21
16.365338
 31
0.0
  0
LINE
  8
0
  6
BYBLOCK
 62
     0
 10
3.427838
 20
15.9375
 30
0.0
 11
4.341736
 21
15.9375
 31
0.0
  0
LINE
  8
0
  6
BYBLOCK
 62
     0
 10
7.571662
 20
15.9375
 30
0.0
 11
6.657763
 21
15.9375
 31
0.0
  0
SOLID
  8
0
  6
BYBLOCK
 62
     0
 10
3.427838
 20
15.866194
 30
0.0
 11
3.427838
 21
16.008806
 31
0.0
 12
3.0
 22
15.9375
 32
0.0
 13
3.0
 23
15.9375
 33
0.0
  0
SOLID
  8
0
  6
BYBLOCK
 62
     0
 10
7.571662
 20
15.866194
 30
0.0
 11
7.571662
 21
16.008806
 31
0.0
 12
7.9995
 22
15.9375
 32
0.0
 13
7.9995
 23
15.9375
 33
0.0
  0
TEXT
  8
0
  6
BYBLOCK
 62
     0
 10
4.769574
 20
15.697911
 30
0.0
 40
0.479178
  1
5.00
  7
STR
  0
POINT
  8
DEFPOINTS
  6
BYBLOCK
 62
     0
 10
3.0
 20
15.0
 30
0.0
  0
POINT
  8
DEFPOINTS
  6
BYBLOCK
 62
     0
 10
7.9995
 20
11.406
 30
0.0
  0
POINT
  8
DEFPOINTS
  6
BYBLOCK
 62
     0
 10
7.9995
 20
15.9375
 30
0.0
  0
ENDBLK
  8
CDIM
  0
BLOCK
  8
CDIM
  2
*D6
 70
    65
 10
0.0
 20
0.0
 30
0.0
  0
LINE
  8
0
  6
BYBLOCK
 62
     0
 10
26.0
 20
15.213919
 30
0.0
 11
26.0
 21
16.365338
 31
0.0
  0
LINE
  8
0
  6
BYBLOCK
 62
     0
 10
20.25
 20
12.838919
 30
0.0
 11
20.25
 21
16.365338
 31
0.0
  0
LINE
  8
0
  6
BYBLOCK
 62
     0
 10
25.572163
 20
15.9375
 30
0.0
 11
24.283013
 21
15.9375
 31
0.0
  0
LINE
  8
0
  6
BYBLOCK
 62
     0
 10
20.677837
 20
15.9375
 30
0.0
 11
21.966986
 21
15.9375
 31
0.0
  0
SOLID
  8
0
  6
BYBLOCK
 62
     0
 10
25.572163
 20
15.866194
 30
0.0
 11
25.572163
 21
16.008806
 31
0.0
 12
26.0
 22
15.9375
 32
0.0
 13
26.0
 23
15.9375
 33
0.0
  0
SOLID
  8
0
  6
BYBLOCK
 62
     0
 10
20.677837
 20
15.866194
 30
0.0
 11
20.677837
 21
16.008806
 31
0.0
 12
20.25
 22
15.9375
 32
0.0
 13
20.25
 23
15.9375
 33
0.0
  0
TEXT
  8
0
  6
BYBLOCK
 62
     0
 10
22.394824
 20
15.697911
 30
0.0
 40
0.479178
  1
5.75
  7
STR
  0
POINT
  8
DEFPOINTS
  6
BYBLOCK
 62
     0
 10
26.0
 20
15.0
 30
0.0
  0
POINT
  8
DEFPOINTS
  6
BYBLOCK
 62
     0
 10
20.25
 20
12.625
 30
0.0
  0
POINT
  8
DEFPOINTS
  6
BYBLOCK
 62
     0
 10
20.25
 20
15.9375
 30
0.0
  0
ENDBLK
  8
CDIM
  0
BLOCK
  8
CDIM
  2
*D7
 70
    65
 10
0.0
 20
0.0
 30
0.0
  0
LINE
  8
0
  6
BYBLOCK
 62
     0
 10
26.0
 20
15.213919
 30
0.0
 11
26.0
 21
17.64885
 31
0.0
  0
LINE
  8
0
  6
BYBLOCK
 62
     0
 10
18.0
 20
15.213919
 30
0.0
 11
18.0
 21
17.64885
 31
0.0
  0
LINE
  8
0
  6
BYBLOCK
 62
     0
 10
25.572163
 20
17.221013
 30
0.0
 11
23.158014
 21
17.221013
 31
0.0
  0
LINE
  8
0
  6
BYBLOCK
 62
     0
 10
18.427838
 20
17.221013
 30
0.0
 11
20.841987
 21
17.221013
 31
0.0
  0
SOLID
  8
0
  6
BYBLOCK
 62
     0
 10
25.572163
 20
17.149706
 30
0.0
 11
25.572163
 21
17.292319
 31
0.0
 12
26.0
 22
17.221013
 32
0.0
 13
26.0
 23
17.221013
 33
0.0
  0
SOLID
  8
0
  6
BYBLOCK
 62
     0
 10
18.427838
 20
17.149706
 30
0.0
 11
18.427838
 21
17.292319
 31
0.0
 12
18.0
 22
17.221013
 32
0.0
 13
18.0
 23
17.221013
 33
0.0
  0
TEXT
  8
0
  6
BYBLOCK
 62
     0
 10
21.269824
 20
16.981424
 30
0.0
 40
0.479178
  1
8.00
  7
STR
  0
POINT
  8
DEFPOINTS
  6
BYBLOCK
 62
     0
 10
26.0
 20
15.0
 30
0.0
  0
POINT
  8
DEFPOINTS
  6
BYBLOCK
 62
     0
 10
18.0
 20
15.0
 30
0.0
  0
POINT
  8
DEFPOINTS
  6
BYBLOCK
 62
     0
 10
18.0
 20
17.221013
 30
0.0
  0
ENDBLK
  8
CDIM
  0
BLOCK
  8
CDIM
  2
*D8
 70
    65
 10
0.0
 20
0.0
 30
0.0
  0
LINE
  8
0
  6
BYBLOCK
 62
     0
 10
26.213919
 20
15.0
 30
0.0
 11
27.615338
 21
15.0
 31
0.0
  0
LINE
  8
0
  6
BYBLOCK
 62
     0
 10
26.213919
 20
6.0
 30
0.0
 11
27.615338
 21
6.0
 31
0.0
  0
LINE
  8
0
  6
BYBLOCK
 62
     0
 10
27.1875
 20
14.572163
 30
0.0
 11
27.1875
 21
11.167427
 31
0.0
  0
LINE
  8
0
  6
BYBLOCK
 62
     0
 10
27.1875
 20
6.427838
 30
0.0
 11
27.1875
 21
9.832573
 31
0.0
  0
SOLID
  8
0
  6
BYBLOCK
 62
     0
 10
27.258806
 20
14.572163
 30
0.0
 11
27.116194
 21
14.572163
 31
0.0
 12
27.1875
 22
15.0
 32
0.0
 13
27.1875
 23
15.0
 33
0.0
  0
SOLID
  8
0
  6
BYBLOCK
 62
     0
 10
27.258806
 20
6.427838
 30
0.0
 11
27.116194
 21
6.427838
 31
0.0
 12
27.1875
 22
6.0
 32
0.0
 13
27.1875
 23
6.0
 33
0.0
  0
TEXT
  8
0
  6
BYBLOCK
 62
     0
 10
26.457324
 20
10.260411
 30
0.0
 40
0.479178
  1
9.00
  7
STR
  0
POINT
  8
DEFPOINTS
  6
BYBLOCK
 62
     0
 10
26.0
 20
15.0
 30
0.0
  0
POINT
  8
DEFPOINTS
  6
BYBLOCK
 62
     0
 10
26.0
 20
6.0
 30
0.0
  0
POINT
  8
DEFPOINTS
  6
BYBLOCK
 62
     0
 10
27.1875
 20
6.0
 30
0.0
  0
ENDBLK
  8
CDIM
  0
BLOCK
  8
CDIM
  2
*D9
 70
    65
 10
0.0
 20
0.0
 30
0.0
  0
LINE
  8
0
  6
BYBLOCK
 62
     0
 10
17.786081
 20
15.0
 30
0.0
 11
16.134663
 21
15.0
 31
0.0
  0
LINE
  8
0
  6
BYBLOCK
 62
     0
 10
20.036081
 20
9.75
 30
0.0
 11
16.134663
 21
9.75
 31
0.0
  0
LINE
  8
0
  6
BYBLOCK
 62
     0
 10
16.5625
 20
14.572163
 30
0.0
 11
16.5625
 21
13.042427
 31
0.0
  0
LINE
  8
0
  6
BYBLOCK
 62
     0
 10
16.5625
 20
10.177838
 30
0.0
 11
16.5625
 21
11.707574
 31
0.0
  0
SOLID
  8
0
  6
BYBLOCK
 62
     0
 10
16.633806
 20
14.572163
 30
0.0
 11
16.491194
 21
14.572163
 31
0.0
 12
16.5625
 22
15.0
 32
0.0
 13
16.5625
 23
15.0
 33
0.0
  0
SOLID
  8
0
  6
BYBLOCK
 62
     0
 10
16.633806
 20
10.177838
 30
0.0
 11
16.491194
 21
10.177838
 31
0.0
 12
16.5625
 22
9.75
 32
0.0
 13
16.5625
 23
9.75
 33
0.0
  0
TEXT
  8
0
  6
BYBLOCK
 62
     0
 10
15.832324
 20
12.135411
 30
0.0
 40
0.479178
  1
5.25
  7
STR
  0
POINT
  8
DEFPOINTS
  6
BYBLOCK
 62
     0
 10
18.0
 20
15.0
 30
0.0
  0
POINT
  8
DEFPOINTS
  6
BYBLOCK
 62
     0
 10
20.25
 20
9.75
 30
0.0
  0
POINT
  8
DEFPOINTS
  6
BYBLOCK
 62
     0
 10
16.5625
 20
9.75
 30
0.0
  0
ENDBLK
  8
CDIM
  0
BLOCK
  8
CDIM
  2
*D10
 70
    65
 10
0.0
 20
0.0
 30
0.0
  0
LINE
  8
0
  6
BYBLOCK
 62
     0
 10
11.213919
 20
15.0
 30
0.0
 11
12.834088
 21
15.0
 31
0.0
  0
LINE
  8
0
  6
BYBLOCK
 62
     0
 10
8.213419
 20
10.156
 30
0.0
 11
12.834088
 21
10.156
 31
0.0
  0
LINE
  8
0
  6
BYBLOCK
 62
     0
 10
12.40625
 20
14.572163
 30
0.0
 11
12.40625
 21
13.245426
 31
0.0
  0
LINE
  8
0
  6
BYBLOCK
 62
     0
 10
12.40625
 20
10.583837
 30
0.0
 11
12.40625
 21
11.910573
 31
0.0
  0
SOLID
  8
0
  6
BYBLOCK
 62
     0
 10
12.477556
 20
14.572163
 30
0.0
 11
12.334944
 21
14.572163
 31
0.0
 12
12.40625
 22
15.0
 32
0.0
 13
12.40625
 23
15.0
 33
0.0
  0
SOLID
  8
0
  6
BYBLOCK
 62
     0
 10
12.477556
 20
10.583837
 30
0.0
 11
12.334944
 21
10.583837
 31
0.0
 12
12.40625
 22
10.156
 32
0.0
 13
12.40625
 23
10.156
 33
0.0
  0
TEXT
  8
0
  6
BYBLOCK
 62
     0
 10
11.664665
 20
12.338411
 30
0.0
 40
0.479178
  1
4.84
  7
STR
  0
POINT
  8
DEFPOINTS
  6
BYBLOCK
 62
     0
 10
11.0
 20
15.0
 30
0.0
  0
POINT
  8
DEFPOINTS
  6
BYBLOCK
 62
     0
 10
7.9995
 20
10.156
 30
0.0
  0
POINT
  8
DEFPOINTS
  6
BYBLOCK
 62
     0
 10
12.40625
 20
10.156
 30
0.0
  0
ENDBLK
  8
CDIM
  0
BLOCK
  8
CDIM
  2
*D11
 70
    65
 10
0.0
 20
0.0
 30
0.0
  0
LINE
  8
0
  6
BYBLOCK
 62
     0
 10
13.0
 20
15.213919
 30
0.0
 11
13.0
 21
16.365338
 31
0.0
  0
LINE
  8
0
  6
BYBLOCK
 62
     0
 10
16.0
 20
15.213919
 30
0.0
 11
16.0
 21
16.365338
 31
0.0
  0
LINE
  8
0
  6
BYBLOCK
 62
     0
 10
16.427838
 20
15.9375
 30
0.0
 11
16.855675
 21
15.9375
 31
0.0
  0
LINE
  8
0
  6
BYBLOCK
 62
     0
 10
12.572163
 20
15.9375
 30
0.0
 11
12.144325
 21
15.9375
 31
0.0
  0
SOLID
  8
0
  6
BYBLOCK
 62
     0
 10
16.427838
 20
15.866194
 30
0.0
 11
16.427838
 21
16.008806
 31
0.0
 12
16.0
 22
15.9375
 32
0.0
 13
16.0
 23
15.9375
 33
0.0
  0
SOLID
  8
0
  6
BYBLOCK
 62
     0
 10
12.572163
 20
15.866194
 30
0.0
 11
12.572163
 21
16.008806
 31
0.0
 12
13.0
 22
15.9375
 32
0.0
 13
13.0
 23
15.9375
 33
0.0
  0
TEXT
  8
0
  6
BYBLOCK
 62
     0
 10
13.846013
 20
15.697911
 30
0.0
 40
0.479178
  1
3.00
  7
STR
  0
POINT
  8
DEFPOINTS
  6
BYBLOCK
 62
     0
 10
13.0
 20
15.0
 30
0.0
  0
POINT
  8
DEFPOINTS
  6
BYBLOCK
 62
     0
 10
16.0
 20
15.0
 30
0.0
  0
POINT
  8
DEFPOINTS
  6
BYBLOCK
 62
     0
 10
16.0
 20
15.9375
 30
0.0
  0
ENDBLK
  8
CDIM
  0
BLOCK
  8
0
  2
*D12
 70
    65
 10
0.0
 20
0.0
 30
0.0
  3
*D
  0
LINE
  8
0
  6
BYBLOCK
 62
     0
 10
11.9375
 20
17.125
 30
0.0
 11
13.46125
 21
17.125
 31
0.0
  0
LINE
  8
0
  6
BYBLOCK
 62
     0
 10
8.937
 20
12.281
 30
0.0
 11
13.46125
 21
12.281
 31
0.0
  0
LINE
  8
0
  6
BYBLOCK
 62
     0
 10
13.28125
 20
16.945
 30
0.0
 11
13.28125
 21
14.883
 31
0.0
  0
LINE
  8
0
  6
BYBLOCK
 62
     0
 10
13.28125
 20
12.461
 30
0.0
 11
13.28125
 21
14.523
 31
0.0
  0
SOLID
  8
0
  6
BYBLOCK
 62
     0
 10
13.25125
 20
16.945
 30
0.0
 11
13.31125
 21
16.945
 31
0.0
 12
13.28125
 22
17.125
 32
0.0
 13
13.28125
 23
17.125
 33
0.0
  0
SOLID
  8
0
  6
BYBLOCK
 62
     0
 10
13.25125
 20
12.461
 30
0.0
 11
13.31125
 21
12.461
 31
0.0
 12
13.28125
 22
12.281
 32
0.0
 13
13.28125
 23
12.281
 33
0.0
  0
TEXT
  8
0
  6
BYBLOCK
 62
     0
 10
12.84625
 20
14.613
 30
0.0
 40
0.18
  1
4.8440
 72
     1
 11
13.28125
 21
14.703
 31
0.0
 73
     2
  0
POINT
  8
DEFPOINTS
  6
BYBLOCK
 62
     0
 10
11.875
 20
17.125
 30
0.0
  0
POINT
  8
DEFPOINTS
  6
BYBLOCK
 62
     0
 10
8.8745
 20
12.281
 30
0.0
  0
POINT
  8
DEFPOINTS
  6
BYBLOCK
 62
     0
 10
13.28125
 20
12.281
 30
0.0
  0
ENDBLK
  8
0
  0
BLOCK
  8
0
  2
*D13
 70
    65
 10
0.0
 20
0.0
 30
0.0
  3
*D
  0
LINE
  8
0
  6
BYBLOCK
 62
     0
 10
20.3125
 20
17.125
 30
0.0
 11
18.7575
 21
17.125
 31
0.0
  0
LINE
  8
0
  6
BYBLOCK
 62
     0
 10
22.5625
 20
11.875
 30
0.0
 11
18.7575
 21
11.875
 31
0.0
  0
LINE
  8
0
  6
BYBLOCK
 62
     0
 10
18.9375
 20
16.945
 30
0.0
 11
18.9375
 21
14.68
 31
0.0
  0
LINE
  8
0
  6
BYBLOCK
 62
     0
 10
18.9375
 20
12.055
 30
0.0
 11
18.9375
 21
14.32
 31
0.0
  0
SOLID
  8
0
  6
BYBLOCK
 62
     0
 10
18.9075
 20
16.945
 30
0.0
 11
18.9675
 21
16.945
 31
0.0
 12
18.9375
 22
17.125
 32
0.0
 13
18.9375
 23
17.125
 33
0.0
  0
SOLID
  8
0
  6
BYBLOCK
 62
     0
 10
18.9075
 20
12.055
 30
0.0
 11
18.9675
 21
12.055
 31
0.0
 12
18.9375
 22
11.875
 32
0.0
 13
18.9375
 23
11.875
 33
0.0
  0
TEXT
  8
0
  6
BYBLOCK
 62
     0
 10
18.5175
 20
14.41
 30
0.0
 40
0.18
  1
5.2500
 72
     1
 11
18.9375
 21
14.5
 31
0.0
 73
     2
  0
POINT
  8
DEFPOINTS
  6
BYBLOCK
 62
     0
 10
20.375
 20
17.125
 30
0.0
  0
POINT
  8
DEFPOINTS
  6
BYBLOCK
 62
     0
 10
22.625
 20
11.875
 30
0.0
  0
POINT
  8
DEFPOINTS
  6
BYBLOCK
 62
     0
 10
18.9375
 20
11.875
 30
0.0
  0
ENDBLK
  8
0
  0
BLOCK
  8
0
  2
*D14
 70
    65
 10
0.0
 20
0.0
 30
0.0
  3
*D
  0
LINE
  8
0
  6
BYBLOCK
 62
     0
 10
3.875
 20
17.1875
 30
0.0
 11
3.875
 21
18.2425
 31
0.0
  0
LINE
  8
0
  6
BYBLOCK
 62
     0
 10
8.8745
 20
13.5935
 30
0.0
 11
8.8745
 21
18.2425
 31
0.0
  0
LINE
  8
0
  6
BYBLOCK
 62
     0
 10
4.055
 20
18.0625
 30
0.0
 11
5.83475
 21
18.0625
 31
0.0
  0
LINE
  8
0
  6
BYBLOCK
 62
     0
 10
8.6945
 20
18.0625
 30
0.0
 11
6.91475
 21
18.0625
 31
0.0
  0
SOLID
  8
0
  6
BYBLOCK
 62
     0
 10
4.055
 20
18.0925
 30
0.0
 11
4.055
 21
18.0325
 31
0.0
 12
3.875
 22
18.0625
 32
0.0
 13
3.875
 23
18.0625
 33
0.0
  0
SOLID
  8
0
  6
BYBLOCK
 62
     0
 10
8.6945
 20
18.0925
 30
0.0
 11
8.6945
 21
18.0325
 31
0.0
 12
8.8745
 22
18.0625
 32
0.0
 13
8.8745
 23
18.0625
 33
0.0
  0
TEXT
  8
0
  6
BYBLOCK
 62
     0
 10
5.92475
 20
17.9725
 30
0.0
 40
0.18
  1
4.9995
 72
     1
 11
6.37475
 21
18.0625
 31
0.0
 73
     2
  0
POINT
  8
DEFPOINTS
  6
BYBLOCK
 62
     0
 10
3.875
 20
17.125
 30
0.0
  0
POINT
  8
DEFPOINTS
  6
BYBLOCK
 62
     0
 10
8.8745
 20
13.531
 30
0.0
  0
POINT
  8
DEFPOINTS
  6
BYBLOCK
 62
     0
 10
8.8745
 20
18.0625
 30
0.0
  0
ENDBLK
  8
0
  0
BLOCK
  8
0
  2
*D15
 70
    65
 10
0.0
 20
0.0
 30
0.0
  3
*D
  0
LINE
  8
0
  6
BYBLOCK
 62
     0
 10
14.625
 20
17.1875
 30
0.0
 11
14.625
 21
18.2425
 31
0.0
  0
LINE
  8
0
  6
BYBLOCK
 62
     0
 10
17.625
 20
17.1875
 30
0.0
 11
17.625
 21
18.2425
 31
0.0
  0
LINE
  8
0
  6
BYBLOCK
 62
     0
 10
14.805
 20
18.0625
 30
0.0
 11
15.721189
 21
18.0625
 31
0.0
  0
LINE
  8
0
  6
BYBLOCK
 62
     0
 10
17.445
 20
18.0625
 30
0.0
 11
16.681189
 21
18.0625
 31
0.0
  0
SOLID
  8
0
  6
BYBLOCK
 62
     0
 10
14.805
 20
18.0925
 30
0.0
 11
14.805
 21
18.0325
 31
0.0
 12
14.625
 22
18.0625
 32
0.0
 13
14.625
 23
18.0625
 33
0.0
  0
SOLID
  8
0
  6
BYBLOCK
 62
     0
 10
17.445
 20
18.0925
 30
0.0
 11
17.445
 21
18.0325
 31
0.0
 12
17.625
 22
18.0625
 32
0.0
 13
17.625
 23
18.0625
 33
0.0
  0
TEXT
  8
0
  6
BYBLOCK
 62
     0
 10
15.811189
 20
17.9725
 30
0.0
 40
0.18
  1
3.0000
 72
     1
 11
16.201189
 21
18.0625
 31
0.0
 73
     2
  0
POINT
  8
DEFPOINTS
  6
BYBLOCK
 62
     0
 10
14.625
 20
17.125
 30
0.0
  0
POINT
  8
DEFPOINTS
  6
BYBLOCK
 62
     0
 10
17.625
 20
17.125
 30
0.0
  0
POINT
  8
DEFPOINTS
  6
BYBLOCK
 62
     0
 10
17.625
 20
18.0625
 30
0.0
  0
ENDBLK
  8
0
  0
BLOCK
  8
0
  2
*D16
 70
    65
 10
0.0
 20
0.0
 30
0.0
  3
*D
  0
LINE
  8
0
  6
BYBLOCK
 62
     0
 10
28.375
 20
17.1875
 30
0.0
 11
28.375
 21
18.2425
 31
0.0
  0
LINE
  8
0
  6
BYBLOCK
 62
     0
 10
22.625
 20
14.8125
 30
0.0
 11
22.625
 21
18.2425
 31
0.0
  0
LINE
  8
0
  6
BYBLOCK
 62
     0
 10
28.195
 20
18.0625
 30
0.0
 11
26.01
 21
18.0625
 31
0.0
  0
LINE
  8
0
  6
BYBLOCK
 62
     0
 10
22.805
 20
18.0625
 30
0.0
 11
24.99
 21
18.0625
 31
0.0
  0
SOLID
  8
0
  6
BYBLOCK
 62
     0
 10
28.195
 20
18.0925
 30
0.0
 11
28.195
 21
18.0325
 31
0.0
 12
28.375
 22
18.0625
 32
0.0
 13
28.375
 23
18.0625
 33
0.0
  0
SOLID
  8
0
  6
BYBLOCK
 62
     0
 10
22.805
 20
18.0925
 30
0.0
 11
22.805
 21
18.0325
 31
0.0
 12
22.625
 22
18.0625
 32
0.0
 13
22.625
 23
18.0625
 33
0.0
  0
TEXT
  8
0
  6
BYBLOCK
 62
     0
 10
25.08
 20
17.9725
 30
0.0
 40
0.18
  1
5.7500
 72
     1
 11
25.5
 21
18.0625
 31
0.0
 73
     2
  0
POINT
  8
DEFPOINTS
  6
BYBLOCK
 62
     0
 10
28.375
 20
17.125
 30
0.0
  0
POINT
  8
DEFPOINTS
  6
BYBLOCK
 62
     0
 10
22.625
 20
14.75
 30
0.0
  0
POINT
  8
DEFPOINTS
  6
BYBLOCK
 62
     0
 10
22.625
 20
18.0625
 30
0.0
  0
ENDBLK
  8
0
  0
BLOCK
  8
0
  2
*D17
 70
    65
 10
0.0
 20
0.0
 30
0.0
  3
*D
  0
LINE
  8
0
  6
BYBLOCK
 62
     0
 10
28.375
 20
17.1875
 30
0.0
 11
28.375
 21
19.526013
 31
0.0
  0
LINE
  8
0
  6
BYBLOCK
 62
     0
 10
20.375
 20
17.1875
 30
0.0
 11
20.375
 21
19.526013
 31
0.0
  0
LINE
  8
0
  6
BYBLOCK
 62
     0
 10
28.195
 20
19.346013
 30
0.0
 11
24.855
 21
19.346013
 31
0.0
  0
LINE
  8
0
  6
BYBLOCK
 62
     0
 10
20.555
 20
19.346013
 30
0.0
 11
23.895
 21
19.346013
 31
0.0
  0
SOLID
  8
0
  6
BYBLOCK
 62
     0
 10
28.195
 20
19.376013
 30
0.0
 11
28.195
 21
19.316013
 31
0.0
 12
28.375
 22
19.346013
 32
0.0
 13
28.375
 23
19.346013
 33
0.0
  0
SOLID
  8
0
  6
BYBLOCK
 62
     0
 10
20.555
 20
19.376013
 30
0.0
 11
20.555
 21
19.316013
 31
0.0
 12
20.375
 22
19.346013
 32
0.0
 13
20.375
 23
19.346013
 33
0.0
  0
TEXT
  8
0
  6
BYBLOCK
 62
     0
 10
23.985
 20
19.256013
 30
0.0
 40
0.18
  1
8.0000
 72
     1
 11
24.375
 21
19.346013
 31
0.0
 73
     2
  0
POINT
  8
DEFPOINTS
  6
BYBLOCK
 62
     0
 10
28.375
 20
17.125
 30
0.0
  0
POINT
  8
DEFPOINTS
  6
BYBLOCK
 62
     0
 10
20.375
 20
17.125
 30
0.0
  0
POINT
  8
DEFPOINTS
  6
BYBLOCK
 62
     0
 10
20.375
 20
19.346013
 30
0.0
  0
ENDBLK
  8
0
  0
BLOCK
  8
0
  2
*D18
 70
    65
 10
0.0
 20
0.0
 30
0.0
  3
*D
  0
LINE
  8
0
  6
BYBLOCK
 62
     0
 10
28.4375
 20
17.125
 30
0.0
 11
29.7425
 21
17.125
 31
0.0
  0
LINE
  8
0
  6
BYBLOCK
 62
     0
 10
28.4375
 20
8.125
 30
0.0
 11
29.7425
 21
8.125
 31
0.0
  0
LINE
  8
0
  6
BYBLOCK
 62
     0
 10
29.5625
 20
16.945
 30
0.0
 11
29.5625
 21
12.805
 31
0.0
  0
LINE
  8
0
  6
BYBLOCK
 62
     0
 10
29.5625
 20
8.305
 30
0.0
 11
29.5625
 21
12.445
 31
0.0
  0
SOLID
  8
0
  6
BYBLOCK
 62
     0
 10
29.5325
 20
16.945
 30
0.0
 11
29.5925
 21
16.945
 31
0.0
 12
29.5625
 22
17.125
 32
0.0
 13
29.5625
 23
17.125
 33
0.0
  0
SOLID
  8
0
  6
BYBLOCK
 62
     0
 10
29.5325
 20
8.305
 30
0.0
 11
29.5925
 21
8.305
 31
0.0
 12
29.5625
 22
8.125
 32
0.0
 13
29.5625
 23
8.125
 33
0.0
  0
TEXT
  8
0
  6
BYBLOCK
 62
     0
 10
29.1725
 20
12.535
 30
0.0
 40
0.18
  1
9.0000
 72
     1
 11
29.5625
 21
12.625
 31
0.0
 73
     2
  0
POINT
  8
DEFPOINTS
  6
BYBLOCK
 62
     0
 10
28.375
 20
17.125
 30
0.0
  0
POINT
  8
DEFPOINTS
  6
BYBLOCK
 62
     0
 10
28.375
 20
8.125
 30
0.0
  0
POINT
  8
DEFPOINTS
  6
BYBLOCK
 62
     0
 10
29.5625
 20
8.125
 30
0.0
  0
ENDBLK
  8
0
  0
ENDSEC
  0
SECTION
  2
ENTITIES
  0
POLYLINE
  8
DAMAN
 66
     1
 10
0.0
 20
0.0
 30
0.0
 70
     1
  0
VERTEX
  8
DAMAN
 10
3.875
 20
8.125
 30
0.0
  0
VERTEX
  8
DAMAN
 10
3.875
 20
17.125
 30
0.0
  0
VERTEX
  8
DAMAN
 10
11.875
 20
17.125
 30
0.0
  0
VERTEX
  8
DAMAN
 10
11.875
 20
8.125
 30
0.0
  0
SEQEND
  8
DAMAN
  0
POLYLINE
  8
DAMAN
 66
     1
 10
0.0
 20
0.0
 30
0.0
 70
     1
  0
VERTEX
  8
DAMAN
 10
14.625
 20
8.125
 30
0.0
  0
VERTEX
  8
DAMAN
 10
14.625
 20
17.125
 30
0.0
  0
VERTEX
  8
DAMAN
 10
17.625
 20
17.125
 30
0.0
  0
VERTEX
  8
DAMAN
 10
17.625
 20
8.125
 30
0.0
  0
SEQEND
  8
DAMAN
  0
CIRCLE
  8
DAMAN
 10
11.0
 20
8.875
 30
0.0
 40
0.59375
  0
CIRCLE
  8
DAMAN
 10
11.0
 20
13.375
 30
0.0
 40
0.59375
  0
CIRCLE
  8
DAMAN
 10
11.0
 20
16.375
 30
0.0
 40
0.59375
  0
CIRCLE
  8
DAMAN
 10
4.75
 20
16.375
 30
0.0
 40
0.59375
  0
CIRCLE
  8
DAMAN
 10
4.75
 20
11.875
 30
0.0
 40
0.59375
  0
CIRCLE
  8
DAMAN
 10
4.75
 20
8.875
 30
0.0
 40
0.59375
  0
CIRCLE
  8
DAMAN
 10
4.75
 20
8.875
 30
0.0
 40
0.390625
  0
INSERT
  8
DAMAN
  2
100CROSS
 10
4.75
 20
8.875
 30
0.0
  0
INSERT
  8
DAMAN
  2
100CROSS
 10
4.75
 20
11.875
 30
0.0
  0
CIRCLE
  8
DAMAN
 10
4.75
 20
11.875
 30
0.0
 40
0.390625
  0
INSERT
  8
DAMAN
  2
100CROSS
 10
4.75
 20
16.375
 30
0.0
  0
CIRCLE
  8
DAMAN
 10
4.75
 20
16.375
 30
0.0
 40
0.390625
  0
INSERT
  8
DAMAN
  2
100CROSS
 10
11.0
 20
16.375
 30
0.0
  0
CIRCLE
  8
DAMAN
 10
11.0
 20
16.375
 30
0.0
 40
0.390625
  0
INSERT
  8
DAMAN
  2
100CROSS
 10
11.0
 20
13.375
 30
0.0
  0
CIRCLE
  8
DAMAN
 10
11.0
 20
13.375
 30
0.0
 40
0.390625
  0
INSERT
  8
DAMAN
  2
100CROSS
 10
11.0
 20
8.875
 30
0.0
  0
CIRCLE
  8
DAMAN
 10
11.0
 20
8.875
 30
0.0
 40
0.390625
  0
INSERT
  8
DAMAN
  2
100CROSS
 10
8.8125
 20
11.235
 30
0.0
 41
0.25
 42
0.25
 43
0.0
  0
CIRCLE
  8
DAMAN
 10
8.8125
 20
11.235
 30
0.0
 40
0.125
  0
CIRCLE
  8
DAMAN
 10
7.1875
 20
10.782
 30
0.0
 40
0.125
  0
INSERT
  8
DAMAN
  2
100CROSS
 10
7.1875
 20
10.782
 30
0.0
 41
0.25
 42
0.25
 43
0.0
  0
INSERT
  8
DAMAN
  2
100CROSS
 10
9.4375
 20
11.23425
 30
0.0
 41
0.171
 42
0.171
 43
0.0
  0
CIRCLE
  8
DAMAN
 10
9.4375
 20
11.23425
 30
0.0
 40
0.0855
  0
CIRCLE
  8
DAMAN
 10
6.6875
 20
13.53125
 30
0.0
 40
0.0855
  0
INSERT
  8
DAMAN
  2
100CROSS
 10
6.6875
 20
13.53125
 30
0.0
 41
0.171
 42
0.171
 43
0.0
  0
INSERT
  8
DAMAN
  2
100CROSS
 10
8.8745
 20
13.531
 30
0.0
 41
0.688
 42
0.688
 43
0.0
  0
CIRCLE
  8
DAMAN
 10
8.8745
 20
13.531
 30
0.0
 40
0.344
  0
CIRCLE
  8
DAMAN
 10
8.8745
 20
12.281
 30
0.0
 40
0.344
  0
INSERT
  8
DAMAN
  2
100CROSS
 10
8.8745
 20
12.281
 30
0.0
 41
0.688
 42
0.688
 43
0.0
  0
INSERT
  8
DAMAN
  2
100CROSS
 10
7.2495
 20
11.656
 30
0.0
 41
0.688
 42
0.688
 43
0.0
  0
CIRCLE
  8
DAMAN
 10
7.2495
 20
11.656
 30
0.0
 40
0.344
  0
CIRCLE
  8
DAMAN
 10
7.2495
 20
12.906
 30
0.0
 40
0.344
  0
INSERT
  8
DAMAN
  2
100CROSS
 10
7.2495
 20
12.906
 30
0.0
 41
0.688
 42
0.688
 43
0.0
  0
INSERT
  8
DAMAN
  2
100CROSS
 10
9.5005
 20
12.906
 30
0.0
 41
0.25
 42
0.25
 43
0.0
  0
CIRCLE
  8
DAMAN
 10
9.5005
 20
12.906
 30
0.0
 40
0.1055
  0
CIRCLE
  8
DAMAN
 10
6.6255
 20
12.281
 30
0.0
 40
0.1055
  0
INSERT
  8
DAMAN
  2
100CROSS
 10
6.6255
 20
12.281
 30
0.0
 41
0.25
 42
0.25
 43
0.0
  0
INSERT
  8
DAMAN
  2
100CROSS
 10
9.4375
 20
10.25
 30
0.0
 41
0.375
 42
0.375
 43
0.0
  0
CIRCLE
  8
DAMAN
 10
9.4375
 20
10.25
 30
0.0
 40
0.15625
  0
INSERT
  8
DAMAN
  2
100CROSS
 10
9.4375
 20
14.25
 30
0.0
 41
0.375
 42
0.375
 43
0.0
  0
CIRCLE
  8
DAMAN
 10
9.4375
 20
14.25
 30
0.0
 40
0.15625
  0
INSERT
  8
DAMAN
  2
100CROSS
 10
6.6875
 20
10.25
 30
0.0
 41
0.375
 42
0.375
 43
0.0
  0
CIRCLE
  8
DAMAN
 10
6.6875
 20
10.25
 30
0.0
 40
0.15625
  0
CIRCLE
  8
DAMAN
 10
6.6875
 20
14.25
 30
0.0
 40
0.15625
  0
INSERT
  8
DAMAN
  2
100CROSS
 10
6.6875
 20
14.25
 30
0.0
 41
0.375
 42
0.375
 43
0.0
  0
CIRCLE
  8
DAMAN
 10
6.6875
 20
14.25
 30
0.0
 40
0.1875
  0
CIRCLE
  8
DAMAN
 10
6.6875
 20
10.25
 30
0.0
 40
0.1875
  0
CIRCLE
  8
DAMAN
 10
9.4375
 20
14.25
 30
0.0
 40
0.1875
  0
CIRCLE
  8
DAMAN
 10
9.4375
 20
10.25
 30
0.0
 40
0.1875
  0
CIRCLE
  8
DAMAN
 10
6.625
 20
12.28125
 30
0.0
 40
0.125
  0
CIRCLE
  8
DAMAN
 10
9.5
 20
12.90625
 30
0.0
 40
0.125
  0
POLYLINE
  8
DAMAN
 66
     1
 10
0.0
 20
0.0
 30
0.0
 70
     1
  0
VERTEX
  8
DAMAN
 10
1.125
 20
8.125
 30
0.0
  0
VERTEX
  8
DAMAN
 10
1.125
 20
17.125
 30
0.0
  0
VERTEX
  8
DAMAN
 10
-1.875
 20
17.125
 30
0.0
  0
VERTEX
  8
DAMAN
 10
-1.875
 20
8.125
 30
0.0
  0
SEQEND
  8
DAMAN
  0
LINE
  8
DAMAN
 10
3.875
 20
2.90625
 30
0.0
 11
11.875
 21
2.90625
 31
0.0
  0
LINE
  8
DAMAN
 10
11.875
 20
2.90625
 30
0.0
 11
11.875
 21
5.90625
 31
0.0
  0
LINE
  8
DAMAN
 10
11.875
 20
5.90625
 30
0.0
 11
3.875
 21
5.90625
 31
0.0
  0
LINE
  8
DAMAN
 10
3.875
 20
5.90625
 30
0.0
 11
3.875
 21
2.90625
 31
0.0
  0
LINE
  8
DAMAN
 10
3.875
 20
22.34375
 30
0.0
 11
11.875
 21
22.34375
 31
0.0
  0
LINE
  8
DAMAN
 10
11.875
 20
19.34375
 30
0.0
 11
3.875
 21
19.34375
 31
0.0
  0
LINE
  8
DAMAN
 10
3.875
 20
19.34375
 30
0.0
 11
3.875
 21
22.34375
 31
0.0
  0
LINE
  8
DAMAN
 10
11.875
 20
22.34375
 30
0.0
 11
11.875
 21
19.34375
 31
0.0
  0
TEXT
  8
DAMAN
 10
5.21875
 20
4.78125
 30
0.0
 40
0.188
  1
DAMAN ****
  0
ENDSEC
  0
EOF
